  0
SECTION
  2
HEADER
  9
$ACADVER
  1
AC1015
  9
$ACADMAINTVER
 70
     6
  9
$DWGCODEPAGE
  3
ANSI_1252
  9
$INSBASE
 10
0.0
 20
0.0
 30
0.0
  9
$EXTMIN
 10
-594.0000000000002
 20
0.0
 30
0.0
  9
$EXTMAX
 10
0.0
 20
420.0000000000002
 30
0.0
  9
$LIMMIN
 10
0.0
 20
0.0
  9
$LIMMAX
 10
12.0
 20
9.0
  9
$ORTHOMODE
 70
     0
  9
$REGENMODE
 70
     1
  9
$FILLMODE
 70
     1
  9
$QTEXTMODE
 70
     0
  9
$MIRRTEXT
 70
     1
  9
$LTSCALE
 40
1.0
  9
$ATTMODE
 70
     1
  9
$TEXTSIZE
 40
0.2
  9
$TRACEWID
 40
0.05
  9
$TEXTSTYLE
  7
Standard
  9
$CLAYER
  8
0
  9
$CELTYPE
  6
ByLayer
  9
$CECOLOR
 62
   256
  9
$CELTSCALE
 40
1.0
  9
$DISPSILH
 70
     0
  9
$DIMSCALE
 40
1.0
  9
$DIMASZ
 40
0.18
  9
$DIMEXO
 40
0.0625
  9
$DIMDLI
 40
0.38
  9
$DIMRND
 40
0.0
  9
$DIMDLE
 40
0.0
  9
$DIMEXE
 40
0.18
  9
$DIMTP
 40
0.0
  9
$DIMTM
 40
0.0
  9
$DIMTXT
 40
0.18
  9
$DIMCEN
 40
0.09
  9
$DIMTSZ
 40
0.0
  9
$DIMTOL
 70
     0
  9
$DIMLIM
 70
     0
  9
$DIMTIH
 70
     1
  9
$DIMTOH
 70
     1
  9
$DIMSE1
 70
     0
  9
$DIMSE2
 70
     0
  9
$DIMTAD
 70
     0
  9
$DIMZIN
 70
     0
  9
$DIMBLK
  1

  9
$DIMASO
 70
     1
  9
$DIMSHO
 70
     1
  9
$DIMPOST
  1

  9
$DIMAPOST
  1

  9
$DIMALT
 70
     0
  9
$DIMALTD
 70
     2
  9
$DIMALTF
 40
25.4
  9
$DIMLFAC
 40
1.0
  9
$DIMTOFL
 70
     0
  9
$DIMTVP
 40
0.0
  9
$DIMTIX
 70
     0
  9
$DIMSOXD
 70
     0
  9
$DIMSAH
 70
     0
  9
$DIMBLK1
  1

  9
$DIMBLK2
  1

  9
$DIMSTYLE
  2
Standard
  9
$DIMCLRD
 70
     0
  9
$DIMCLRE
 70
     0
  9
$DIMCLRT
 70
     0
  9
$DIMTFAC
 40
1.0
  9
$DIMGAP
 40
0.09
  9
$DIMJUST
 70
     0
  9
$DIMSD1
 70
     0
  9
$DIMSD2
 70
     0
  9
$DIMTOLJ
 70
     1
  9
$DIMTZIN
 70
     0
  9
$DIMALTZ
 70
     0
  9
$DIMALTTZ
 70
     0
  9
$DIMUPT
 70
     0
  9
$DIMDEC
 70
     4
  9
$DIMTDEC
 70
     4
  9
$DIMALTU
 70
     2
  9
$DIMALTTD
 70
     2
  9
$DIMTXSTY
  7
Standard
  9
$DIMAUNIT
 70
     0
  9
$DIMADEC
 70
     0
  9
$DIMALTRND
 40
0.0
  9
$DIMAZIN
 70
     0
  9
$DIMDSEP
 70
    46
  9
$DIMATFIT
 70
     3
  9
$DIMFRAC
 70
     0
  9
$DIMLDRBLK
  1

  9
$DIMLUNIT
 70
     2
  9
$DIMLWD
 70
    -2
  9
$DIMLWE
 70
    -2
  9
$DIMTMOVE
 70
     0
  9
$LUNITS
 70
     2
  9
$LUPREC
 70
     4
  9
$SKETCHINC
 40
0.1
  9
$FILLETRAD
 40
0.5
  9
$AUNITS
 70
     0
  9
$AUPREC
 70
     0
  9
$MENU
  1
.
  9
$ELEVATION
 40
0.0
  9
$PELEVATION
 40
0.0
  9
$THICKNESS
 40
0.0
  9
$LIMCHECK
 70
     0
  9
$CHAMFERA
 40
0.5
  9
$CHAMFERB
 40
0.5
  9
$CHAMFERC
 40
1.0
  9
$CHAMFERD
 40
0.0
  9
$SKPOLY
 70
     0
  9
$TDCREATE
 40
2456997.594853507
  9
$TDUCREATE
 40
2456997.55318684
  9
$TDUPDATE
 40
2456997.594853692
  9
$TDUUPDATE
 40
2456997.553187025
  9
$TDINDWG
 40
0.0000000116
  9
$TDUSRTIMER
 40
0.0000000116
  9
$USRTIMER
 70
     1
  9
$ANGBASE
 50
0.0
  9
$ANGDIR
 70
     0
  9
$PDMODE
 70
     0
  9
$PDSIZE
 40
0.0
  9
$PLINEWID
 40
0.0
  9
$SPLFRAME
 70
     0
  9
$SPLINETYPE
 70
     6
  9
$SPLINESEGS
 70
     8
  9
$HANDSEED
  5
2EC
  9
$SURFTAB1
 70
     6
  9
$SURFTAB2
 70
     6
  9
$SURFTYPE
 70
     6
  9
$SURFU
 70
     6
  9
$SURFV
 70
     6
  9
$UCSBASE
  2

  9
$UCSNAME
  2

  9
$UCSORG
 10
0.0
 20
0.0
 30
0.0
  9
$UCSXDIR
 10
1.0
 20
0.0
 30
0.0
  9
$UCSYDIR
 10
0.0
 20
1.0
 30
0.0
  9
$UCSORTHOREF
  2

  9
$UCSORTHOVIEW
 70
     0
  9
$UCSORGTOP
 10
0.0
 20
0.0
 30
0.0
  9
$UCSORGBOTTOM
 10
0.0
 20
0.0
 30
0.0
  9
$UCSORGLEFT
 10
0.0
 20
0.0
 30
0.0
  9
$UCSORGRIGHT
 10
0.0
 20
0.0
 30
0.0
  9
$UCSORGFRONT
 10
0.0
 20
0.0
 30
0.0
  9
$UCSORGBACK
 10
0.0
 20
0.0
 30
0.0
  9
$PUCSBASE
  2

  9
$PUCSNAME
  2

  9
$PUCSORG
 10
0.0
 20
0.0
 30
0.0
  9
$PUCSXDIR
 10
1.0
 20
0.0
 30
0.0
  9
$PUCSYDIR
 10
0.0
 20
1.0
 30
0.0
  9
$PUCSORTHOREF
  2

  9
$PUCSORTHOVIEW
 70
     0
  9
$PUCSORGTOP
 10
0.0
 20
0.0
 30
0.0
  9
$PUCSORGBOTTOM
 10
0.0
 20
0.0
 30
0.0
  9
$PUCSORGLEFT
 10
0.0
 20
0.0
 30
0.0
  9
$PUCSORGRIGHT
 10
0.0
 20
0.0
 30
0.0
  9
$PUCSORGFRONT
 10
0.0
 20
0.0
 30
0.0
  9
$PUCSORGBACK
 10
0.0
 20
0.0
 30
0.0
  9
$USERI1
 70
     0
  9
$USERI2
 70
     0
  9
$USERI3
 70
     0
  9
$USERI4
 70
     0
  9
$USERI5
 70
     0
  9
$USERR1
 40
18.1
  9
$USERR2
 40
0.0
  9
$USERR3
 40
0.0
  9
$USERR4
 40
0.0
  9
$USERR5
 40
0.0
  9
$WORLDVIEW
 70
     1
  9
$SHADEDGE
 70
     3
  9
$SHADEDIF
 70
    70
  9
$TILEMODE
 70
     1
  9
$MAXACTVP
 70
    64
  9
$PINSBASE
 10
0.0
 20
0.0
 30
0.0
  9
$PLIMCHECK
 70
     0
  9
$PEXTMIN
 10
1.00000000000000E+20
 20
1.00000000000000E+20
 30
1.00000000000000E+20
  9
$PEXTMAX
 10
-1.00000000000000E+20
 20
-1.00000000000000E+20
 30
-1.00000000000000E+20
  9
$PLIMMIN
 10
0.0
 20
0.0
  9
$PLIMMAX
 10
12.0
 20
9.0
  9
$UNITMODE
 70
     0
  9
$VISRETAIN
 70
     1
  9
$PLINEGEN
 70
     0
  9
$PSLTSCALE
 70
     1
  9
$TREEDEPTH
 70
  3020
  9
$CMLSTYLE
  2
Standard
  9
$CMLJUST
 70
     0
  9
$CMLSCALE
 40
1.0
  9
$PROXYGRAPHICS
 70
     1
  9
$MEASUREMENT
 70
     1
  9
$CELWEIGHT
370
    -1
  9
$ENDCAPS
280
     0
  9
$JOINSTYLE
280
     0
  9
$LWDISPLAY
290
     0
  9
$INSUNITS
 70
     4
  9
$HYPERLINKBASE
  1

  9
$STYLESHEET
  1

  9
$XEDIT
290
     1
  9
$CEPSNTYPE
380
     0
  9
$PSTYLEMODE
290
     1
  9
$FINGERPRINTGUID
  2
{54674C35-C037-48AB-A22C-5E15AC004F9D}
  9
$VERSIONGUID
  2
{FAEB1C32-E019-11D5-929B-00C0DF256EC4}
  9
$EXTNAMES
290
     1
  9
$PSVPSCALE
 40
0.0
  9
$OLESTARTUP
290
     0
  0
ENDSEC
  0
SECTION
  2
CLASSES
  0
CLASS
  1
ACDBDICTIONARYWDFLT
  2
AcDbDictionaryWithDefault
  3
ObjectDBX Classes
 90
        0
280
     0
281
     0
  0
CLASS
  1
VISUALSTYLE
  2
AcDbVisualStyle
  3
ObjectDBX Classes
 90
     4095
280
     0
281
     0
  0
CLASS
  1
MATERIAL
  2
AcDbMaterial
  3
ObjectDBX Classes
 90
     1153
280
     0
281
     0
  0
CLASS
  1
DICTIONARYVAR
  2
AcDbDictionaryVar
  3
ObjectDBX Classes
 90
        0
280
     0
281
     0
  0
CLASS
  1
ACDBPLACEHOLDER
  2
AcDbPlaceHolder
  3
ObjectDBX Classes
 90
        0
280
     0
281
     0
  0
CLASS
  1
LAYOUT
  2
AcDbLayout
  3
ObjectDBX Classes
 90
        0
280
     0
281
     0
  0
ENDSEC
  0
SECTION
  2
TABLES
  0
TABLE
  2
VPORT
  5
8
330
0
100
AcDbSymbolTable
 70
     1
  0
VPORT
  5
29
330
8
100
AcDbSymbolTableRecord
100
AcDbViewportTableRecord
  2
*Active
 70
     0
 10
0.0
 20
0.0
 11
1.0
 21
1.0
 12
-297.0000000000001
 22
210.0000000000001
 13
0.0
 23
0.0
 14
0.5
 24
0.5
 15
0.5
 25
0.5
 16
0.0
 26
0.0
 36
1.0
 17
0.0
 27
0.0
 37
0.0
 40
462.0000000000003
 41
1.60267857142857
 42
50.0
 43
0.0
 44
0.0
 50
0.0
 51
0.0
 71
     0
 72
   100
 73
     1
 74
     3
 75
     0
 76
     0
 77
     0
 78
     0
281
     0
 65
     1
110
0.0
120
0.0
130
0.0
111
1.0
121
0.0
131
0.0
112
0.0
122
1.0
132
0.0
 79
     0
146
0.0
  0
ENDTAB
  0
TABLE
  2
LTYPE
  5
5
330
0
100
AcDbSymbolTable
 70
     8
  0
LTYPE
  5
14
330
5
100
AcDbSymbolTableRecord
100
AcDbLinetypeTableRecord
  2
ByBlock
 70
     0
  3

 72
    65
 73
     0
 40
0.0
  0
LTYPE
  5
15
330
5
100
AcDbSymbolTableRecord
100
AcDbLinetypeTableRecord
  2
ByLayer
 70
     0
  3

 72
    65
 73
     0
 40
0.0
  0
LTYPE
  5
16
330
5
100
AcDbSymbolTableRecord
100
AcDbLinetypeTableRecord
  2
Continuous
 70
     0
  3
Solid line
 72
    65
 73
     0
 40
0.0
  0
LTYPE
  5
3F
330
5
100
AcDbSymbolTableRecord
100
AcDbLinetypeTableRecord
  2
DASHED
 70
     0
  3
Dashed
 72
    65
 73
     2
 40
15.0
 49
7.0
 74
     0
 49
-8.0
 74
     0
  0
LTYPE
  5
40
330
5
100
AcDbSymbolTableRecord
100
AcDbLinetypeTableRecord
  2
DOTTED
 70
     0
  3
Dotted
 72
    65
 73
     2
 40
1.0
 49
0.0
 74
     0
 49
-1.0
 74
     0
  0
LTYPE
  5
41
330
5
100
AcDbSymbolTableRecord
100
AcDbLinetypeTableRecord
  2
DOT_CENTER
 70
     0
  3
Dot_Center
 72
    65
 73
     4
 40
14.0
 49
12.0
 74
     0
 49
-1.0
 74
     0
 49
0.0
 74
     0
 49
-1.0
 74
     0
  0
LTYPE
  5
42
330
5
100
AcDbSymbolTableRecord
100
AcDbLinetypeTableRecord
  2
LONG_DASHED
 70
     0
  3
Long_Dashed
 72
    65
 73
     2
 40
15.0
 49
10.0
 74
     0
 49
-5.0
 74
     0
  0
LTYPE
  5
43
330
5
100
AcDbSymbolTableRecord
100
AcDbLinetypeTableRecord
  2
DASH_CENTER
 70
     0
  3
Dash_Center
 72
    65
 73
     4
 40
14.0
 49
11.0
 74
     0
 49
-1.0
 74
     0
 49
1.0
 74
     0
 49
-1.0
 74
     0
  0
LTYPE
  5
44
330
5
100
AcDbSymbolTableRecord
100
AcDbLinetypeTableRecord
  2
PHANTOM
 70
     0
  3
Phantom
 72
    65
 73
     6
 40
13.0
 49
10.0
 74
     0
 49
-1.0
 74
     0
 49
0.0
 74
     0
 49
-1.0
 74
     0
 49
0.0
 74
     0
 49
-1.0
 74
     0
  0
LTYPE
  5
45
330
5
100
AcDbSymbolTableRecord
100
AcDbLinetypeTableRecord
  2
CENTER_DASH_DASH
 70
     0
  3
Center_Dash_Dash
 72
    65
 73
     6
 40
14.0
 49
9.0
 74
     0
 49
-1.0
 74
     0
 49
1.0
 74
     0
 49
-1.0
 74
     0
 49
1.0
 74
     0
 49
-1.0
 74
     0
  0
ENDTAB
  0
TABLE
  2
LAYER
  5
2
330
0
100
AcDbSymbolTable
 70
     4
  0
LAYER
  5
10
330
2
100
AcDbSymbolTableRecord
100
AcDbLayerTableRecord
  2
0
 70
     0
 62
     7
  6
Continuous
370
    -3
390
F
  0
LAYER
  5
46
330
2
100
AcDbSymbolTableRecord
100
AcDbLayerTableRecord
  2
1
 70
     0
 62
     7
  6
Continuous
370
    -3
390
F
  0
LAYER
  5
47
330
2
100
AcDbSymbolTableRecord
100
AcDbLayerTableRecord
  2
Bemaßungen_TC_020513_DIN_
 70
     0
 62
     7
  6
Continuous
370
    -3
390
F
  0
LAYER
  5
48
330
2
100
AcDbSymbolTableRecord
100
AcDbLayerTableRecord
  2
Sichtbare_Kanten_TC_020513_DIN_
 70
     0
 62
     7
  6
Continuous
370
    -3
390
F
  0
ENDTAB
  0
TABLE
  2
STYLE
  5
3
330
0
100
AcDbSymbolTable
 70
     4
  0
STYLE
  5
11
330
3
100
AcDbSymbolTableRecord
100
AcDbTextStyleTableRecord
  2
Standard
 70
     0
 40
0.0
 41
1.0
 50
0.0
 71
     0
 42
0.2
  3
txt
  4

  0
STYLE
  5
263
330
3
100
AcDbSymbolTableRecord
100
AcDbTextStyleTableRecord
  2
CONVERTER_11
 70
     0
 40
0.0
 41
1.2
 50
0.0
 71
     0
 42
0.2
  3
ARIAL.TTF
  4

  0
STYLE
  5
267
330
3
100
AcDbSymbolTableRecord
100
AcDbTextStyleTableRecord
  2
CONVERTER_12
 70
     0
 40
0.0
 41
1.38
 50
0.0
 71
     0
 42
0.2
  3
ARIAL.TTF
  4

  0
STYLE
  5
273
330
3
100
AcDbSymbolTableRecord
100
AcDbTextStyleTableRecord
  2
CONVERTER_13
 70
     0
 40
0.0
 41
0.95
 50
0.0
 71
     0
 42
0.2
  3
simplex.shx
  4

  0
ENDTAB
  0
TABLE
  2
VIEW
  5
6
330
0
100
AcDbSymbolTable
 70
     0
  0
ENDTAB
  0
TABLE
  2
UCS
  5
7
330
0
100
AcDbSymbolTable
 70
     0
  0
ENDTAB
  0
TABLE
  2
APPID
  5
9
330
0
100
AcDbSymbolTable
 70
     1
  0
APPID
  5
12
330
9
100
AcDbSymbolTableRecord
100
AcDbRegAppTableRecord
  2
ACAD
 70
     0
  0
ENDTAB
  0
TABLE
  2
DIMSTYLE
  5
A
330
0
100
AcDbSymbolTable
 70
     8
100
AcDbDimStyleTable
  0
DIMSTYLE
105
27
330
A
100
AcDbSymbolTableRecord
100
AcDbDimStyleTableRecord
  2
Standard
 70
     0
178
     0
340
11
  0
DIMSTYLE
105
277
102
{ACAD_REACTORS
330
278
102
}
330
A
100
AcDbSymbolTableRecord
100
AcDbDimStyleTableRecord
  2
ME10_DIM_10
 70
     0
  3
M<>
 41
6.0
 42
1.0
 44
2.0
 73
     0
 74
     0
 77
     1
 78
     8
140
6.0
147
4.0
172
     1
173
     1
174
     1
175
     1
176
     2
177
     2
271
     2
178
     4
271
     2
340
273
  0
DIMSTYLE
105
284
102
{ACAD_REACTORS
330
285
102
}
330
A
100
AcDbSymbolTableRecord
100
AcDbDimStyleTableRecord
  2
ME10_DIM_11
 70
     0
 41
6.0
 42
1.0
 44
2.0
 73
     0
 74
     0
 77
     1
 78
     8
140
6.0
147
4.0
172
     1
173
     1
174
     1
175
     1
176
     2
177
     2
271
     2
178
     4
271
     2
340
273
  0
DIMSTYLE
105
28F
102
{ACAD_REACTORS
330
290
102
}
330
A
100
AcDbSymbolTableRecord
100
AcDbDimStyleTableRecord
  2
ME10_DIM_12
 70
     0
 41
6.0
 42
1.0
 44
2.0
 73
     0
 74
     0
 77
     1
 78
     8
140
6.0
147
4.0
172
     1
173
     1
174
     1
175
     1
176
     2
177
     2
271
     2
178
     4
271
     2
340
273
  0
DIMSTYLE
105
29A
102
{ACAD_REACTORS
330
29B
102
}
330
A
100
AcDbSymbolTableRecord
100
AcDbDimStyleTableRecord
  2
ME10_DIM_13
 70
     0
 41
6.0
 42
1.0
 44
2.0
 73
     0
 74
     0
 77
     1
 78
     8
140
6.0
147
4.0
172
     1
173
     1
174
     1
175
     1
176
     2
177
     2
271
     2
178
     4
271
     2
340
273
  0
DIMSTYLE
105
2A5
102
{ACAD_REACTORS
330
2A6
102
}
330
A
100
AcDbSymbolTableRecord
100
AcDbDimStyleTableRecord
  2
ME10_DIM_14
 70
     0
 41
6.0
 42
1.0
 44
2.0
 73
     0
 74
     0
 77
     1
 78
     8
140
6.0
147
4.0
172
     1
173
     1
174
     1
175
     1
176
     2
177
     2
271
     2
178
     4
271
     2
340
273
  0
DIMSTYLE
105
2B0
102
{ACAD_REACTORS
330
2B1
102
}
330
A
100
AcDbSymbolTableRecord
100
AcDbDimStyleTableRecord
  2
ME10_DIM_15
 70
     0
 41
6.0
 42
1.0
 44
2.0
 73
     0
 74
     0
 77
     1
 78
     8
140
6.0
147
4.0
172
     1
173
     1
174
     1
175
     1
176
     2
177
     2
271
     2
178
     4
271
     2
340
273
  0
DIMSTYLE
105
2BB
102
{ACAD_REACTORS
330
2BC
102
}
330
A
100
AcDbSymbolTableRecord
100
AcDbDimStyleTableRecord
  2
ME10_DIM_16
 70
     0
 41
6.0
 42
1.0
 44
2.0
 73
     0
 74
     0
 77
     1
 78
     8
140
6.0
147
4.0
172
     1
173
     1
174
     1
175
     1
176
     2
177
     2
271
     2
178
     4
271
     2
340
273
  0
ENDTAB
  0
TABLE
  2
BLOCK_RECORD
  5
1
330
0
100
AcDbSymbolTable
 70
     8
  0
BLOCK_RECORD
  5
1F
330
1
100
AcDbSymbolTableRecord
100
AcDbBlockTableRecord
  2
*Model_Space
340
22
  0
BLOCK_RECORD
  5
1B
330
1
100
AcDbSymbolTableRecord
100
AcDbBlockTableRecord
  2
*Paper_Space
340
1E
  0
BLOCK_RECORD
  5
23
330
1
100
AcDbSymbolTableRecord
100
AcDbBlockTableRecord
  2
*Paper_Space0
340
26
  0
BLOCK_RECORD
  5
26D
330
1
100
AcDbSymbolTableRecord
100
AcDbBlockTableRecord
  2
*D1
340
0
  0
BLOCK_RECORD
  5
279
330
1
100
AcDbSymbolTableRecord
100
AcDbBlockTableRecord
  2
*D2
340
0
  0
BLOCK_RECORD
  5
286
330
1
100
AcDbSymbolTableRecord
100
AcDbBlockTableRecord
  2
*D3
340
0
  0
BLOCK_RECORD
  5
291
330
1
100
AcDbSymbolTableRecord
100
AcDbBlockTableRecord
  2
*D4
340
0
  0
BLOCK_RECORD
  5
29C
330
1
100
AcDbSymbolTableRecord
100
AcDbBlockTableRecord
  2
*D5
340
0
  0
BLOCK_RECORD
  5
2A7
330
1
100
AcDbSymbolTableRecord
100
AcDbBlockTableRecord
  2
*D6
340
0
  0
BLOCK_RECORD
  5
2B2
330
1
100
AcDbSymbolTableRecord
100
AcDbBlockTableRecord
  2
*D7
340
0
  0
ENDTAB
  0
ENDSEC
  0
SECTION
  2
BLOCKS
  0
BLOCK
  5
20
330
1F
100
AcDbEntity
  8
0
100
AcDbBlockBegin
  2
*Model_Space
 70
     0
 10
0.0
 20
0.0
 30
0.0
  3
*Model_Space
  1

  0
ENDBLK
  5
21
330
1F
100
AcDbEntity
  8
0
100
AcDbBlockEnd
  0
BLOCK
  5
1C
330
1B
100
AcDbEntity
 67
     1
  8
0
100
AcDbBlockBegin
  2
*Paper_Space
 70
     0
 10
0.0
 20
0.0
 30
0.0
  3
*Paper_Space
  1

  0
ENDBLK
  5
1D
330
1B
100
AcDbEntity
 67
     1
  8
0
100
AcDbBlockEnd
  0
BLOCK
  5
24
330
23
100
AcDbEntity
  8
0
100
AcDbBlockBegin
  2
*Paper_Space0
 70
     0
 10
0.0
 20
0.0
 30
0.0
  3
*Paper_Space0
  1

  0
ENDBLK
  5
25
330
23
100
AcDbEntity
  8
0
100
AcDbBlockEnd
  0
BLOCK
  5
275
330
26D
100
AcDbEntity
  8
0
100
AcDbBlockBegin
  2
*D1
 70
     1
 10
0.0
 20
0.0
 30
0.0
  3
*D1
  1

  0
LINE
  5
26E
330
26D
100
AcDbEntity
  8
1
  6
Continuous
 62
     2
100
AcDbLine
 10
-306.0628773024312
 20
271.4391002395413
 30
0.0
 11
-298.8586985193509
 21
232.0932007319508
 31
0.0
  0
LINE
  5
26F
330
26D
100
AcDbEntity
  8
1
  6
Continuous
 62
     2
100
AcDbLine
 10
-324.7521795685367
 20
268.0171153175783
 30
0.0
 11
-304.0955823270517
 21
271.7993091786954
 31
0.0
  0
LINE
  5
270
330
26D
100
AcDbEntity
  8
1
  6
Continuous
 62
     2
100
AcDbLine
 10
-317.5480007854565
 20
228.6712158099877
 30
0.0
 11
-296.8914035439714
 21
232.4534096711048
 31
0.0
  0
SOLID
  5
271
330
26D
100
AcDbEntity
  8
1
 62
     2
100
AcDbTrace
 10
-304.2052525939695
 20
265.6794825328816
 30
0.0
 11
-305.7592483759685
 21
265.394948093924
 31
0.0
 12
-306.0628773024312
 22
271.4391002395413
 32
0.0
 13
-306.0628773024312
 23
271.4391002395413
 33
0.0
  0
SOLID
  5
272
330
26D
100
AcDbEntity
  8
1
 62
     2
100
AcDbTrace
 10
-300.7163232278127
 20
237.8528184386105
 30
0.0
 11
-299.1623274458136
 21
238.1373528775682
 31
0.0
 12
-298.8586985193509
 22
232.0932007319508
 32
0.0
 13
-298.8586985193509
 23
232.0932007319508
 33
0.0
  0
MTEXT
  5
274
330
26D
100
AcDbEntity
  8
1
 62
     4
100
AcDbMText
 10
-299.520374632197
 20
257.9163024961016
 30
0.0
 40
6.0
 41
0.0
 71
     7
 72
     1
  1
\C4;M\C4;40
  7
CONVERTER_13
 11
0.1801044695770061
 21
-0.9836474876897645
 31
0.0
 73
     1
 44
0.60024009603842
  0
ENDBLK
  5
276
330
26D
100
AcDbEntity
  8
0
100
AcDbBlockEnd
  0
BLOCK
  5
282
330
279
100
AcDbEntity
  8
0
100
AcDbBlockBegin
  2
*D2
 70
     1
 10
0.0
 20
0.0
 30
0.0
  3
*D2
  1

  0
LINE
  5
27A
330
279
100
AcDbEntity
  8
1
  6
Continuous
 62
     2
100
AcDbLine
 10
-147.6719687106699
 20
161.782389580974
 30
0.0
 11
-147.6719687106699
 21
173.782389580974
 31
0.0
  0
LINE
  5
27B
330
279
100
AcDbEntity
  8
1
  6
Continuous
 62
     2
100
AcDbLine
 10
-147.6719687106699
 20
173.782389580974
 30
0.0
 11
-147.6719687106699
 21
182.782389580974
 31
0.0
  0
LINE
  5
27C
330
279
100
AcDbEntity
  8
1
  6
Continuous
 62
     2
100
AcDbLine
 10
-147.6719687106699
 20
182.782389580974
 30
0.0
 11
-147.6719687106699
 21
194.782389580974
 31
0.0
  0
LINE
  5
27D
330
279
100
AcDbEntity
  8
1
  6
Continuous
 62
     2
100
AcDbLine
 10
-176.6719687106699
 20
173.782389580974
 30
0.0
 11
-145.6719687106699
 21
173.782389580974
 31
0.0
  0
LINE
  5
27E
330
279
100
AcDbEntity
  8
1
  6
Continuous
 62
     2
100
AcDbLine
 10
-171.1719687106699
 20
182.782389580974
 30
0.0
 11
-145.6719687106699
 21
182.782389580974
 31
0.0
  0
SOLID
  5
27F
330
279
100
AcDbEntity
  8
1
 62
     2
100
AcDbTrace
 10
-146.8820537251455
 20
167.782389580974
 30
0.0
 11
-148.4618836961943
 21
167.782389580974
 31
0.0
 12
-147.6719687106699
 22
173.782389580974
 32
0.0
 13
-147.6719687106699
 23
173.782389580974
 33
0.0
  0
SOLID
  5
280
330
279
100
AcDbEntity
  8
1
 62
     2
100
AcDbTrace
 10
-148.4618836961943
 20
188.782389580974
 30
0.0
 11
-146.8820537251455
 21
188.782389580974
 31
0.0
 12
-147.6719687106699
 22
182.782389580974
 32
0.0
 13
-147.6719687106699
 23
182.782389580974
 33
0.0
  0
MTEXT
  5
281
330
279
100
AcDbEntity
  8
1
 62
     4
100
AcDbMText
 10
-151.6719687106699
 20
176.482389580974
 30
0.0
 40
6.0
 41
0.0
 71
     7
 72
     1
  1
9
  7
CONVERTER_13
 11
0.0
 21
1.0
 31
0.0
 73
     1
 44
0.60024009603842
  0
ENDBLK
  5
283
330
279
100
AcDbEntity
  8
0
100
AcDbBlockEnd
  0
BLOCK
  5
28D
330
286
100
AcDbEntity
  8
0
100
AcDbBlockBegin
  2
*D3
 70
     1
 10
0.0
 20
0.0
 30
0.0
  3
*D3
  1

  0
LINE
  5
287
330
286
100
AcDbEntity
  8
1
  6
Continuous
 62
     2
100
AcDbLine
 10
-470.171970554926
 20
133.782389580974
 30
0.0
 11
-319.671970554926
 21
133.782389580974
 31
0.0
  0
LINE
  5
288
330
286
100
AcDbEntity
  8
1
  6
Continuous
 62
     2
100
AcDbLine
 10
-470.171970554926
 20
188.032389580974
 30
0.0
 11
-470.171970554926
 21
131.782389580974
 31
0.0
  0
LINE
  5
289
330
286
100
AcDbEntity
  8
1
  6
Continuous
 62
     2
100
AcDbLine
 10
-319.671970554926
 20
188.032389580974
 30
0.0
 11
-319.671970554926
 21
131.782389580974
 31
0.0
  0
SOLID
  5
28A
330
286
100
AcDbEntity
  8
1
 62
     2
100
AcDbTrace
 10
-464.171970554926
 20
134.5723045664984
 30
0.0
 11
-464.171970554926
 21
132.9924745954496
 31
0.0
 12
-470.171970554926
 22
133.782389580974
 32
0.0
 13
-470.171970554926
 23
133.782389580974
 33
0.0
  0
SOLID
  5
28B
330
286
100
AcDbEntity
  8
1
 62
     2
100
AcDbTrace
 10
-325.671970554926
 20
132.9924745954496
 30
0.0
 11
-325.671970554926
 21
134.5723045664984
 31
0.0
 12
-319.671970554926
 22
133.782389580974
 32
0.0
 13
-319.671970554926
 23
133.782389580974
 33
0.0
  0
MTEXT
  5
28C
330
286
100
AcDbEntity
  8
1
 62
     4
100
AcDbMText
 10
-404.971970554926
 20
138.382389580974
 30
0.0
 40
6.0
 41
0.0
 71
     7
 72
     1
  1
150,5
  7
CONVERTER_13
 11
0.9999999999970619
 21
2.424068405545306E-6
 31
0.0
 73
     1
 44
0.60024009603842
  0
ENDBLK
  5
28E
330
286
100
AcDbEntity
  8
0
100
AcDbBlockEnd
  0
BLOCK
  5
298
330
291
100
AcDbEntity
  8
0
100
AcDbBlockBegin
  2
*D4
 70
     1
 10
0.0
 20
0.0
 30
0.0
  3
*D4
  1

  0
LINE
  5
292
330
291
100
AcDbEntity
  8
1
  6
Continuous
 62
     2
100
AcDbLine
 10
-147.6719687106699
 20
182.782389580974
 30
0.0
 11
-147.6719687106699
 21
280.7823895809739
 31
0.0
  0
LINE
  5
293
330
291
100
AcDbEntity
  8
1
  6
Continuous
 62
     2
100
AcDbLine
 10
-171.1719687106699
 20
182.782389580974
 30
0.0
 11
-145.6719687106699
 21
182.782389580974
 31
0.0
  0
LINE
  5
294
330
291
100
AcDbEntity
  8
1
  6
Continuous
 62
     2
100
AcDbLine
 10
-179.671968710667
 20
280.7823895809739
 30
0.0
 11
-145.6719687106699
 21
280.7823895809739
 31
0.0
  0
SOLID
  5
295
330
291
100
AcDbEntity
  8
1
 62
     2
100
AcDbTrace
 10
-148.4618836961943
 20
188.782389580974
 30
0.0
 11
-146.8820537251455
 21
188.782389580974
 31
0.0
 12
-147.6719687106699
 22
182.782389580974
 32
0.0
 13
-147.6719687106699
 23
182.782389580974
 33
0.0
  0
SOLID
  5
296
330
291
100
AcDbEntity
  8
1
 62
     2
100
AcDbTrace
 10
-146.8820537251455
 20
274.7823895809739
 30
0.0
 11
-148.4618836961943
 21
274.7823895809739
 31
0.0
 12
-147.6719687106699
 22
280.7823895809739
 32
0.0
 13
-147.6719687106699
 23
280.7823895809739
 33
0.0
  0
MTEXT
  5
297
330
291
100
AcDbEntity
  8
1
 62
     4
100
AcDbMText
 10
-151.6719687106699
 20
223.2365180213409
 30
0.0
 40
6.0
 41
0.0
 71
     7
 72
     1
  1
98
  7
CONVERTER_13
 11
0.0
 21
1.0
 31
0.0
 73
     1
 44
0.60024009603842
  0
ENDBLK
  5
299
330
291
100
AcDbEntity
  8
0
100
AcDbBlockEnd
  0
BLOCK
  5
2A3
330
29C
100
AcDbEntity
  8
0
100
AcDbBlockBegin
  2
*D5
 70
     1
 10
0.0
 20
0.0
 30
0.0
  3
*D5
  1

  0
LINE
  5
29D
330
29C
100
AcDbEntity
  8
1
  6
Continuous
 62
     2
100
AcDbLine
 10
-262.1719687106699
 20
133.782389580974
 30
0.0
 11
-172.1719687106699
 21
133.782389580974
 31
0.0
  0
LINE
  5
29E
330
29C
100
AcDbEntity
  8
1
  6
Continuous
 62
     2
100
AcDbLine
 10
-262.1719687106699
 20
181.782389580974
 30
0.0
 11
-262.1719687106699
 21
131.782389580974
 31
0.0
  0
LINE
  5
29F
330
29C
100
AcDbEntity
  8
1
  6
Continuous
 62
     2
100
AcDbLine
 10
-172.1719687106699
 20
181.782389580974
 30
0.0
 11
-172.1719687106699
 21
131.782389580974
 31
0.0
  0
SOLID
  5
2A0
330
29C
100
AcDbEntity
  8
1
 62
     2
100
AcDbTrace
 10
-256.1719687106699
 20
134.5723045664984
 30
0.0
 11
-256.1719687106699
 21
132.9924745954496
 31
0.0
 12
-262.1719687106699
 22
133.782389580974
 32
0.0
 13
-262.1719687106699
 23
133.782389580974
 33
0.0
  0
SOLID
  5
2A1
330
29C
100
AcDbEntity
  8
1
 62
     2
100
AcDbTrace
 10
-178.1719687106699
 20
132.9924745954496
 30
0.0
 11
-178.1719687106699
 21
134.5723045664984
 31
0.0
 12
-172.1719687106699
 22
133.782389580974
 32
0.0
 13
-172.1719687106699
 23
133.782389580974
 33
0.0
  0
MTEXT
  5
2A2
330
29C
100
AcDbEntity
  8
1
 62
     4
100
AcDbMText
 10
-221.6719687106699
 20
137.782389580974
 30
0.0
 40
6.0
 41
0.0
 71
     7
 72
     1
  1
90
  7
CONVERTER_13
 11
0.9999999999970619
 21
2.424068405545306E-6
 31
0.0
 73
     1
 44
0.60024009603842
  0
ENDBLK
  5
2A4
330
29C
100
AcDbEntity
  8
0
100
AcDbBlockEnd
  0
BLOCK
  5
2AE
330
2A7
100
AcDbEntity
  8
0
100
AcDbBlockBegin
  2
*D6
 70
     1
 10
0.0
 20
0.0
 30
0.0
  3
*D6
  1

  0
LINE
  5
2A8
330
2A7
100
AcDbEntity
  8
1
  6
Continuous
 62
     2
100
AcDbLine
 10
-256.6719687106699
 20
153.782389580974
 30
0.0
 11
-177.6719687106699
 21
153.782389580974
 31
0.0
  0
LINE
  5
2A9
330
2A7
100
AcDbEntity
  8
1
  6
Continuous
 62
     2
100
AcDbLine
 10
-256.6719687106699
 20
172.782389580974
 30
0.0
 11
-256.6719687106699
 21
151.782389580974
 31
0.0
  0
LINE
  5
2AA
330
2A7
100
AcDbEntity
  8
1
  6
Continuous
 62
     2
100
AcDbLine
 10
-177.6719687106699
 20
172.782389580974
 30
0.0
 11
-177.6719687106699
 21
151.782389580974
 31
0.0
  0
SOLID
  5
2AB
330
2A7
100
AcDbEntity
  8
1
 62
     2
100
AcDbTrace
 10
-250.6719687106699
 20
154.5723045664984
 30
0.0
 11
-250.6719687106699
 21
152.9924745954496
 31
0.0
 12
-256.6719687106699
 22
153.782389580974
 32
0.0
 13
-256.6719687106699
 23
153.782389580974
 33
0.0
  0
SOLID
  5
2AC
330
2A7
100
AcDbEntity
  8
1
 62
     2
100
AcDbTrace
 10
-183.6719687106699
 20
152.9924745954496
 30
0.0
 11
-183.6719687106699
 21
154.5723045664984
 31
0.0
 12
-177.6719687106699
 22
153.782389580974
 32
0.0
 13
-177.6719687106699
 23
153.782389580974
 33
0.0
  0
MTEXT
  5
2AD
330
2A7
100
AcDbEntity
  8
1
 62
     4
100
AcDbMText
 10
-221.6719687106699
 20
157.782389580974
 30
0.0
 40
6.0
 41
0.0
 71
     7
 72
     1
  1
79
  7
CONVERTER_13
 11
0.9999999999970619
 21
2.424068405545306E-6
 31
0.0
 73
     1
 44
0.60024009603842
  0
ENDBLK
  5
2AF
330
2A7
100
AcDbEntity
  8
0
100
AcDbBlockEnd
  0
BLOCK
  5
2B9
330
2B2
100
AcDbEntity
  8
0
100
AcDbBlockBegin
  2
*D7
 70
     1
 10
0.0
 20
0.0
 30
0.0
  3
*D7
  1

  0
LINE
  5
2B3
330
2B2
100
AcDbEntity
  8
1
  6
Continuous
 62
     2
100
AcDbLine
 10
-455.421970554926
 20
153.782389580974
 30
0.0
 11
-334.421970554926
 21
153.782389580974
 31
0.0
  0
LINE
  5
2B4
330
2B2
100
AcDbEntity
  8
1
  6
Continuous
 62
     2
100
AcDbLine
 10
-455.421970554926
 20
172.782389580974
 30
0.0
 11
-455.421970554926
 21
151.782389580974
 31
0.0
  0
LINE
  5
2B5
330
2B2
100
AcDbEntity
  8
1
  6
Continuous
 62
     2
100
AcDbLine
 10
-334.421970554926
 20
172.782389580974
 30
0.0
 11
-334.421970554926
 21
151.782389580974
 31
0.0
  0
SOLID
  5
2B6
330
2B2
100
AcDbEntity
  8
1
 62
     2
100
AcDbTrace
 10
-449.421970554926
 20
154.5723045664984
 30
0.0
 11
-449.421970554926
 21
152.9924745954496
 31
0.0
 12
-455.421970554926
 22
153.782389580974
 32
0.0
 13
-455.421970554926
 23
153.782389580974
 33
0.0
  0
SOLID
  5
2B7
330
2B2
100
AcDbEntity
  8
1
 62
     2
100
AcDbTrace
 10
-340.421970554926
 20
152.9924745954496
 30
0.0
 11
-340.421970554926
 21
154.5723045664984
 31
0.0
 12
-334.421970554926
 22
153.782389580974
 32
0.0
 13
-334.421970554926
 23
153.782389580974
 33
0.0
  0
MTEXT
  5
2B8
330
2B2
100
AcDbEntity
  8
1
 62
     4
100
AcDbMText
 10
-400.321970554926
 20
157.782389580974
 30
0.0
 40
6.0
 41
0.0
 71
     7
 72
     1
  1
121
  7
CONVERTER_13
 11
0.9999999999970619
 21
2.424068405545306E-6
 31
0.0
 73
     1
 44
0.60024009603842
  0
ENDBLK
  5
2BA
330
2B2
100
AcDbEntity
  8
0
100
AcDbBlockEnd
  0
ENDSEC
  0
SECTION
  2
ENTITIES
  0
POINT
  5
49
330
1F
100
AcDbEntity
  8
Bemaßungen_TC_020513_DIN_
 62
     7
100
AcDbPoint
 10
-256.6719687106699
 20
173.782389580974
 30
0.0
  0
POINT
  5
4A
330
1F
100
AcDbEntity
  8
Bemaßungen_TC_020513_DIN_
 62
     7
100
AcDbPoint
 10
-177.6719687106699
 20
173.782389580974
 30
0.0
  0
POINT
  5
4B
330
1F
100
AcDbEntity
  8
Bemaßungen_TC_020513_DIN_
 62
     7
100
AcDbPoint
 10
-262.1719687106699
 20
182.782389580974
 30
0.0
  0
POINT
  5
4C
330
1F
100
AcDbEntity
  8
Bemaßungen_TC_020513_DIN_
 62
     7
100
AcDbPoint
 10
-172.1719687106699
 20
182.782389580974
 30
0.0
  0
POINT
  5
4D
330
1F
100
AcDbEntity
  8
Bemaßungen_TC_020513_DIN_
 62
     7
100
AcDbPoint
 10
-183.671968710672
 20
173.782389580974
 30
0.0
  0
POINT
  5
4E
330
1F
100
AcDbEntity
  8
Bemaßungen_TC_020513_DIN_
 62
     7
100
AcDbPoint
 10
-183.671968710667
 20
280.782389580974
 30
0.0
  0
POINT
  5
4F
330
1F
100
AcDbEntity
  8
Bemaßungen_TC_020513_DIN_
 62
     7
100
AcDbPoint
 10
-183.671968710672
 20
173.782389580974
 30
0.0
  0
POINT
  5
50
330
1F
100
AcDbEntity
  8
Bemaßungen_TC_020513_DIN_
 62
     7
100
AcDbPoint
 10
-455.421970554926
 20
173.782389580974
 30
0.0
  0
POINT
  5
51
330
1F
100
AcDbEntity
  8
Bemaßungen_TC_020513_DIN_
 62
     7
100
AcDbPoint
 10
-334.421970554926
 20
173.782389580974
 30
0.0
  0
POINT
  5
52
330
1F
100
AcDbEntity
  8
Bemaßungen_TC_020513_DIN_
 62
     7
100
AcDbPoint
 10
-470.171970554926
 20
189.032389580974
 30
0.0
  0
POINT
  5
53
330
1F
100
AcDbEntity
  8
Bemaßungen_TC_020513_DIN_
 62
     7
100
AcDbPoint
 10
-319.671970554926
 20
189.032389580974
 30
0.0
  0
LINE
  5
54
330
1F
100
AcDbEntity
  8
1
  6
Continuous
 62
     7
100
AcDbLine
 10
-378.0
 20
19.99999999999972
 30
0.0
 11
-318.0
 21
19.99999999999972
 31
0.0
  0
LINE
  5
55
330
1F
100
AcDbEntity
  8
1
  6
Continuous
 62
     7
100
AcDbLine
 10
-378.0
 20
29.99999999999978
 30
0.0
 11
-318.0
 21
29.99999999999978
 31
0.0
  0
LINE
  5
56
330
1F
100
AcDbEntity
  8
1
  6
Continuous
 62
     7
100
AcDbLine
 10
-98.0
 20
40.0
 30
0.0
 11
-98.0
 21
10.0
 31
0.0
  0
LINE
  5
57
330
1F
100
AcDbEntity
  8
1
  6
Continuous
 62
     7
100
AcDbLine
 10
-63.29479724502926
 20
40.0
 30
0.0
 11
-63.29479724502926
 21
10.0
 31
0.0
  0
LINE
  5
58
330
1F
100
AcDbEntity
  8
1
  6
Continuous
 62
     7
100
AcDbLine
 10
-318.0
 20
40.0
 30
0.0
 11
-318.0
 21
10.0
 31
0.0
  0
LINE
  5
59
330
1F
100
AcDbEntity
  8
1
  6
Continuous
 62
     7
100
AcDbLine
 10
-297.0000000000006
 20
420.0000000000002
 30
0.0
 11
-297.0000000000006
 21
390.0000000000002
 31
0.0
  0
LINE
  5
5A
330
1F
100
AcDbEntity
  8
1
  6
Continuous
 62
     7
100
AcDbLine
 10
-594.0000000000002
 20
0.0
 30
0.0
 11
0.0
 21
0.0
 31
0.0
  0
LINE
  5
5B
330
1F
100
AcDbEntity
  8
1
  6
Continuous
 62
     7
100
AcDbLine
 10
-594.0000000000002
 20
420.0000000000002
 30
0.0
 11
-594.0000000000002
 21
0.0
 31
0.0
  0
LINE
  5
5C
330
1F
100
AcDbEntity
  8
1
  6
Continuous
 62
     7
100
AcDbLine
 10
0.0
 20
420.0000000000002
 30
0.0
 11
-594.0000000000002
 21
420.0000000000002
 31
0.0
  0
LINE
  5
5D
330
1F
100
AcDbEntity
  8
1
  6
Continuous
 62
     7
100
AcDbLine
 10
0.0
 20
0.0
 30
0.0
 11
0.0
 21
420.0000000000002
 31
0.0
  0
LINE
  5
5E
330
1F
100
AcDbEntity
  8
1
  6
Continuous
 62
     7
100
AcDbLine
 10
-584.0000000000005
 20
10.0
 30
0.0
 11
-10.0
 21
10.0
 31
0.0
  0
LINE
  5
5F
330
1F
100
AcDbEntity
  8
1
  6
Continuous
 62
     7
100
AcDbLine
 10
-10.0
 20
10.0
 30
0.0
 11
-10.0
 21
378.0
 31
0.0
  0
LINE
  5
60
330
1F
100
AcDbEntity
  8
1
  6
Continuous
 62
     7
100
AcDbLine
 10
-10.0
 20
378.0
 30
0.0
 11
-584.0000000000005
 21
378.0
 31
0.0
  0
LINE
  5
61
102
{ACAD_REACTORS
330
2C0
102
}
330
1F
100
AcDbEntity
  8
1
  6
Continuous
 62
     7
100
AcDbLine
 10
-31.98073195584788
 20
20.15499967966526
 30
0.0
 11
-31.98073195584788
 21
29.84500032033474
 31
0.0
  0
LINE
  5
62
102
{ACAD_REACTORS
330
2BD
102
}
330
1F
100
AcDbEntity
  8
1
  6
Continuous
 62
     7
100
AcDbLine
 10
-34.64739862251464
 20
25.0
 30
0.0
 11
-34.64739862251464
 21
28.46410161513768
 31
0.0
  0
LINE
  5
63
102
{ACAD_REACTORS
330
2BD
102
}
330
1F
100
AcDbEntity
  8
1
  6
Continuous
 62
     7
100
AcDbLine
 10
-34.64739862251464
 20
28.46410161513768
 30
0.0
 11
-36.35872348791986
 21
25.5
 31
0.0
  0
LINE
  5
64
102
{ACAD_REACTORS
330
2BD
102
}
330
1F
100
AcDbEntity
  8
1
  6
Continuous
 62
     7
100
AcDbLine
 10
-36.93607375710962
 20
25.5
 30
0.0
 11
-38.64739862251464
 21
28.46410161513768
 31
0.0
  0
LINE
  5
65
102
{ACAD_REACTORS
330
2BD
102
}
330
1F
100
AcDbEntity
  8
1
  6
Continuous
 62
     7
100
AcDbLine
 10
-38.64739862251464
 20
28.46410161513768
 30
0.0
 11
-38.64739862251464
 21
25.0
 31
0.0
  0
LINE
  5
66
330
1F
100
AcDbEntity
  8
1
  6
Continuous
 62
     7
100
AcDbLine
 10
-53.48026917279776
 20
25.28872852868266
 30
0.0
 11
-36.64739862251464
 21
35.0
 31
0.0
  0
LINE
  5
67
330
1F
100
AcDbEntity
  8
1
  6
Continuous
 62
     7
100
AcDbLine
 10
-36.64739862251464
 20
35.0
 30
0.0
 11
-19.81452807223172
 21
25.28872852868266
 31
0.0
  0
LINE
  5
68
330
1F
100
AcDbEntity
  8
1
  6
Continuous
 62
     7
100
AcDbLine
 10
-19.81452807223172
 20
24.7112714713171
 30
0.0
 11
-36.64739862251464
 21
15.0
 31
0.0
  0
LINE
  5
69
330
1F
100
AcDbEntity
  8
1
  6
Continuous
 62
     7
100
AcDbLine
 10
-36.64739862251464
 20
15.0
 30
0.0
 11
-53.48026917279776
 21
24.7112714713171
 31
0.0
  0
LINE
  5
6A
102
{ACAD_REACTORS
330
2BD
102
}
330
1F
100
AcDbEntity
  8
1
  6
Continuous
 62
     7
100
AcDbLine
 10
-39.98073195584812
 20
25.0
 30
0.0
 11
-39.98073195584812
 21
31.46243462406914
 31
0.0
  0
LINE
  5
6B
102
{ACAD_REACTORS
330
2BD
102
}
330
1F
100
AcDbEntity
  8
1
  6
Continuous
 62
     7
100
AcDbLine
 10
-38.99186458860118
 20
31.72740083654458
 30
0.0
 11
-36.64739862251464
 21
27.66666666666652
 31
0.0
  0
LINE
  5
6C
102
{ACAD_REACTORS
330
2BD
102
}
330
1F
100
AcDbEntity
  8
1
  6
Continuous
 62
     7
100
AcDbLine
 10
-39.98073195584812
 20
25.0
 30
0.0
 11
-39.98073195584812
 21
21.69517014526582
 31
0.0
  0
LINE
  5
6D
102
{ACAD_REACTORS
330
2BD
102
}
330
1F
100
AcDbEntity
  8
1
  6
Continuous
 62
     7
100
AcDbLine
 10
-38.64739862251464
 20
21.69517014526582
 30
0.0
 11
-38.64739862251464
 21
25.0
 31
0.0
  0
LINE
  5
6E
102
{ACAD_REACTORS
330
2BD
102
}
330
1F
100
AcDbEntity
  8
1
  6
Continuous
 62
     7
100
AcDbLine
 10
-34.64739862251464
 20
25.0
 30
0.0
 11
-34.64739862251464
 21
18.61653814120359
 31
0.0
  0
LINE
  5
6F
102
{ACAD_REACTORS
330
2BD
102
}
330
1F
100
AcDbEntity
  8
1
  6
Continuous
 62
     7
100
AcDbLine
 10
-33.31406528918138
 20
18.61653814120359
 30
0.0
 11
-33.31406528918138
 21
31.46243462406914
 31
0.0
  0
LINE
  5
70
102
{ACAD_REACTORS
330
2BD
102
}
330
1F
100
AcDbEntity
  8
1
  6
Continuous
 62
     7
100
AcDbLine
 10
-34.30293265642808
 20
31.72740083654458
 30
0.0
 11
-36.64739862251464
 21
27.66666666666652
 31
0.0
  0
LINE
  5
71
102
{ACAD_REACTORS
330
2BE
102
}
330
1F
100
AcDbEntity
  8
1
  6
Continuous
 62
     7
100
AcDbLine
 10
-42.64739862251464
 20
20.54004229606516
 30
0.0
 11
-42.64739862251464
 21
29.84500032033474
 31
0.0
  0
LINE
  5
72
102
{ACAD_REACTORS
330
2BE
102
}
330
1F
100
AcDbEntity
  8
1
  6
Continuous
 62
     7
100
AcDbLine
 10
-41.31406528918138
 20
29.84500032033474
 30
0.0
 11
-41.31406528918138
 21
20.5400422960654
 31
0.0
  0
LINE
  5
73
102
{ACAD_REACTORS
330
2BE
102
}
330
1F
100
AcDbEntity
  8
1
  6
Continuous
 62
     7
100
AcDbLine
 10
-41.31406528918138
 20
20.5400422960654
 30
0.0
 11
-36.98091698685496
 21
18.04014904472319
 31
0.0
  0
LINE
  5
74
102
{ACAD_REACTORS
330
2BE
102
}
330
1F
100
AcDbEntity
  8
1
  6
Continuous
 62
     7
100
AcDbLine
 10
-37.6472135915078
 20
16.88523492999161
 30
0.0
 11
-41.98036189383404
 21
19.38512818133381
 31
0.0
  0
LINE
  5
75
102
{ACAD_REACTORS
330
2BF
102
}
330
1F
100
AcDbEntity
  8
1
  6
Continuous
 62
     7
100
AcDbLine
 10
-43.98073195584812
 20
28.30653878187332
 30
0.0
 11
-43.98073195584812
 21
22.0785038345266
 31
0.0
  0
LINE
  5
76
102
{ACAD_REACTORS
330
2BF
102
}
330
1F
100
AcDbEntity
  8
1
  6
Continuous
 62
     7
100
AcDbLine
 10
-43.98073195584812
 20
22.0785038345266
 30
0.0
 11
-43.98073195584812
 21
21.69346121812646
 31
0.0
  0
LINE
  5
77
102
{ACAD_REACTORS
330
2BF
102
}
330
1F
100
AcDbEntity
  8
1
  6
Continuous
 62
     7
100
AcDbLine
 10
-45.31406528918138
 20
21.69346121812646
 30
0.0
 11
-45.31406528918138
 21
28.30653878187332
 31
0.0
  0
LINE
  5
78
102
{ACAD_REACTORS
330
2C0
102
}
330
1F
100
AcDbEntity
  8
1
  6
Continuous
 62
     7
100
AcDbLine
 10
-30.98091698685494
 20
30.42245737770054
 30
0.0
 11
-28.31425032018842
 21
28.88399583923888
 31
0.0
  0
LINE
  5
79
102
{ACAD_REACTORS
330
2C0
102
}
330
1F
100
AcDbEntity
  8
1
  6
Continuous
 62
     7
100
AcDbLine
 10
-28.98054692484106
 20
27.72908172450752
 30
0.0
 11
-30.64739862251462
 21
28.6907269347039
 31
0.0
  0
LINE
  5
7A
102
{ACAD_REACTORS
330
2C0
102
}
330
1F
100
AcDbEntity
  8
1
  6
Continuous
 62
     7
100
AcDbLine
 10
-30.64739862251462
 20
28.6907269347039
 30
0.0
 11
-30.64739862251462
 21
25.66666666666652
 31
0.0
  0
LINE
  5
7B
102
{ACAD_REACTORS
330
2C0
102
}
330
1F
100
AcDbEntity
  8
1
  6
Continuous
 62
     7
100
AcDbLine
 10
-30.64739862251462
 20
25.66666666666652
 30
0.0
 11
-28.64739862251462
 21
25.66666666666652
 31
0.0
  0
LINE
  5
7C
102
{ACAD_REACTORS
330
2C0
102
}
330
1F
100
AcDbEntity
  8
1
  6
Continuous
 62
     7
100
AcDbLine
 10
-28.64739862251462
 20
24.33333333333326
 30
0.0
 11
-30.64739862251462
 21
24.33333333333326
 31
0.0
  0
LINE
  5
7D
102
{ACAD_REACTORS
330
2C0
102
}
330
1F
100
AcDbEntity
  8
1
  6
Continuous
 62
     7
100
AcDbLine
 10
-30.64739862251462
 20
24.33333333333326
 30
0.0
 11
-30.64739862251462
 21
21.30927306529588
 31
0.0
  0
LINE
  5
7E
102
{ACAD_REACTORS
330
2C0
102
}
330
1F
100
AcDbEntity
  8
1
  6
Continuous
 62
     7
100
AcDbLine
 10
-30.64739862251462
 20
21.30927306529588
 30
0.0
 11
-28.98054692484106
 21
22.27091827549248
 31
0.0
  0
LINE
  5
7F
102
{ACAD_REACTORS
330
2C0
102
}
330
1F
100
AcDbEntity
  8
1
  6
Continuous
 62
     7
100
AcDbLine
 10
-28.31425032018842
 20
21.11600416076066
 30
0.0
 11
-30.98091698685494
 21
19.57754262229946
 31
0.0
  0
LINE
  5
80
330
1F
100
AcDbEntity
  8
1
  6
Continuous
 62
     7
100
AcDbLine
 10
-378.0
 20
50.0
 30
0.0
 11
-10.0
 21
50.0
 31
0.0
  0
LINE
  5
81
330
1F
100
AcDbEntity
  8
1
  6
Continuous
 62
     7
100
AcDbLine
 10
-364.0
 20
40.0
 30
0.0
 11
-364.0
 21
50.0
 31
0.0
  0
LINE
  5
82
330
1F
100
AcDbEntity
  8
1
  6
Continuous
 62
     7
100
AcDbLine
 10
-327.9999999999998
 20
40.0
 30
0.0
 11
-327.9999999999998
 21
50.0
 31
0.0
  0
LINE
  5
83
330
1F
100
AcDbEntity
  8
1
  6
Continuous
 62
     7
100
AcDbLine
 10
-378.0
 20
60.0
 30
0.0
 11
-10.0
 21
60.0
 31
0.0
  0
LINE
  5
84
330
1F
100
AcDbEntity
  8
1
  6
Continuous
 62
     7
100
AcDbLine
 10
-364.0
 20
50.0
 30
0.0
 11
-364.0
 21
60.0
 31
0.0
  0
LINE
  5
85
330
1F
100
AcDbEntity
  8
1
  6
Continuous
 62
     7
100
AcDbLine
 10
-327.9999999999998
 20
50.0
 30
0.0
 11
-327.9999999999998
 21
60.0
 31
0.0
  0
LINE
  5
86
330
1F
100
AcDbEntity
  8
1
  6
Continuous
 62
     7
100
AcDbLine
 10
-378.0
 20
70.0
 30
0.0
 11
-10.0
 21
70.0
 31
0.0
  0
LINE
  5
87
330
1F
100
AcDbEntity
  8
1
  6
Continuous
 62
     7
100
AcDbLine
 10
-364.0
 20
60.0
 30
0.0
 11
-364.0
 21
70.0
 31
0.0
  0
LINE
  5
88
330
1F
100
AcDbEntity
  8
1
  6
Continuous
 62
     7
100
AcDbLine
 10
-327.9999999999998
 20
60.0
 30
0.0
 11
-327.9999999999998
 21
70.0
 31
0.0
  0
LINE
  5
89
330
1F
100
AcDbEntity
  8
1
  6
Continuous
 62
     7
100
AcDbLine
 10
-378.0
 20
80.0
 30
0.0
 11
-10.0
 21
80.0
 31
0.0
  0
LINE
  5
8A
330
1F
100
AcDbEntity
  8
1
  6
Continuous
 62
     7
100
AcDbLine
 10
-364.0
 20
70.0
 30
0.0
 11
-364.0
 21
80.0
 31
0.0
  0
LINE
  5
8B
330
1F
100
AcDbEntity
  8
1
  6
Continuous
 62
     7
100
AcDbLine
 10
-327.9999999999998
 20
70.0
 30
0.0
 11
-327.9999999999998
 21
80.0
 31
0.0
  0
LINE
  5
8C
330
1F
100
AcDbEntity
  8
1
  6
Continuous
 62
     7
100
AcDbLine
 10
-584.0000000000005
 20
378.0
 30
0.0
 11
-584.0000000000005
 21
10.0
 31
0.0
  0
LINE
  5
8D
330
1F
100
AcDbEntity
  8
1
  6
Continuous
 62
     7
100
AcDbLine
 10
-378.0
 20
40.0
 30
0.0
 11
-10.0
 21
40.0
 31
0.0
  0
LINE
  5
8E
330
1F
100
AcDbEntity
  8
1
  6
Continuous
 62
     7
100
AcDbLine
 10
-378.0
 20
9.99999999999977
 30
0.0
 11
-378.0
 21
80.0
 31
0.0
  0
LWPOLYLINE
  5
8F
330
1F
100
AcDbEntity
  8
Sichtbare_Kanten_TC_020513_DIN_
  6
Continuous
 62
     7
100
AcDbPolyline
 90
        2
 70
     0
 43
0.5
 10
-392.296970554926
 20
242.786956688457
 10
-392.296970554926
 20
247.977822473491
  0
LWPOLYLINE
  5
90
330
1F
100
AcDbEntity
  8
Sichtbare_Kanten_TC_020513_DIN_
  6
Continuous
 62
     7
100
AcDbPolyline
 90
        2
 70
     0
 43
0.5
 10
-390.234574634867
 20
243.327521709073
 10
-391.734574634867
 20
242.462137093688
  0
LWPOLYLINE
  5
91
330
1F
100
AcDbEntity
  8
Sichtbare_Kanten_TC_020513_DIN_
  6
Continuous
 62
     7
100
AcDbPolyline
 90
        2
 70
     0
 43
0.5
 10
-391.546970554926
 20
243.436235467874
 10
-390.609366474984
 20
243.977160898609
  0
LWPOLYLINE
  5
92
330
1F
100
AcDbEntity
  8
Sichtbare_Kanten_TC_020513_DIN_
  6
Continuous
 62
     7
100
AcDbPolyline
 90
        2
 70
     0
 43
0.5
 10
-391.546970554926
 20
245.007389580974
 10
-391.546970554926
 20
243.436235467874
  0
LWPOLYLINE
  5
93
330
1F
100
AcDbEntity
  8
Sichtbare_Kanten_TC_020513_DIN_
  6
Continuous
 62
     7
100
AcDbPolyline
 90
        2
 70
     0
 43
0.5
 10
-390.421970554926
 20
245.007389580974
 10
-391.546970554926
 20
245.007389580974
  0
LWPOLYLINE
  5
94
330
1F
100
AcDbEntity
  8
Sichtbare_Kanten_TC_020513_DIN_
  6
Continuous
 62
     7
100
AcDbPolyline
 90
        2
 70
     0
 43
0.5
 10
-391.546970554926
 20
245.757389580974
 10
-390.421970554926
 20
245.757389580974
  0
LWPOLYLINE
  5
95
330
1F
100
AcDbEntity
  8
Sichtbare_Kanten_TC_020513_DIN_
  6
Continuous
 62
     7
100
AcDbPolyline
 90
        2
 70
     0
 43
0.5
 10
-391.546970554926
 20
247.328543694073
 10
-391.546970554926
 20
245.757389580974
  0
LWPOLYLINE
  5
96
330
1F
100
AcDbEntity
  8
Sichtbare_Kanten_TC_020513_DIN_
  6
Continuous
 62
     7
100
AcDbPolyline
 90
        2
 70
     0
 43
0.5
 10
-390.609366474984
 20
246.787618263338
 10
-391.546970554926
 20
247.328543694073
  0
LWPOLYLINE
  5
97
330
1F
100
AcDbEntity
  8
Sichtbare_Kanten_TC_020513_DIN_
  6
Continuous
 62
     7
100
AcDbPolyline
 90
        2
 70
     0
 43
0.5
 10
-391.734574634867
 20
248.302642068259
 10
-390.234574634867
 20
247.437257452874
  0
LWPOLYLINE
  5
98
330
1F
100
AcDbEntity
  8
Sichtbare_Kanten_TC_020513_DIN_
  6
Continuous
 62
     7
100
AcDbPolyline
 90
        2
 70
     0
 43
0.5
 10
-399.871970554926
 20
243.69561053461
 10
-399.871970554926
 20
247.069168627337
  0
LWPOLYLINE
  5
99
330
1F
100
AcDbEntity
  8
Sichtbare_Kanten_TC_020513_DIN_
  6
Continuous
 62
     7
100
AcDbPolyline
 90
        2
 70
     0
 43
0.5
 10
-399.121970554926
 20
247.069168627337
 10
-399.121970554926
 20
243.69561053461
  0
LWPOLYLINE
  5
9A
330
1F
100
AcDbEntity
  8
Sichtbare_Kanten_TC_020513_DIN_
  6
Continuous
 62
     7
100
AcDbPolyline
 90
        2
 70
     0
 43
0.5
 10
-403.921554003936
 20
245.382389580974
 10
-394.921970554926
 20
240.190322206545
  0
LWPOLYLINE
  5
9B
330
1F
100
AcDbEntity
  8
Sichtbare_Kanten_TC_020513_DIN_
  6
Continuous
 62
     7
100
AcDbPolyline
 90
        2
 70
     0
 43
0.5
 10
-394.921970554926
 20
240.190322206545
 10
-385.922387105916
 20
245.382389580974
  0
LWPOLYLINE
  5
9C
330
1F
100
AcDbEntity
  8
Sichtbare_Kanten_TC_020513_DIN_
  6
Continuous
 62
     7
100
AcDbPolyline
 90
        2
 70
     0
 43
0.5
 10
-385.922387105916
 20
245.382389580974
 10
-394.921970554926
 20
250.574456955402
  0
LWPOLYLINE
  5
9D
330
1F
100
AcDbEntity
  8
Sichtbare_Kanten_TC_020513_DIN_
  6
Continuous
 62
     7
100
AcDbPolyline
 90
        2
 70
     0
 43
0.5
 10
-394.921970554926
 20
250.574456955402
 10
-403.921554003936
 20
245.382389580974
  0
LWPOLYLINE
  5
9E
330
1F
100
AcDbEntity
  8
Sichtbare_Kanten_TC_020513_DIN_
  6
Continuous
 62
     7
100
AcDbPolyline
 90
        2
 70
     0
 43
0.5
 10
-394.921970554926
 20
239.757389580974
 10
-404.671970554926
 20
245.382389580974
  0
LWPOLYLINE
  5
9F
330
1F
100
AcDbEntity
  8
Sichtbare_Kanten_TC_020513_DIN_
  6
Continuous
 62
     7
100
AcDbPolyline
 90
        2
 70
     0
 43
0.5
 10
-385.171970554926
 20
245.382389580974
 10
-394.921970554926
 20
239.757389580974
  0
LWPOLYLINE
  5
A0
330
1F
100
AcDbEntity
  8
Sichtbare_Kanten_TC_020513_DIN_
  6
Continuous
 62
     7
100
AcDbPolyline
 90
        2
 70
     0
 43
0.5
 10
-394.921970554926
 20
251.007389580974
 10
-385.171970554926
 20
245.382389580974
  0
LWPOLYLINE
  5
A1
330
1F
100
AcDbEntity
  8
Sichtbare_Kanten_TC_020513_DIN_
  6
Continuous
 62
     7
100
AcDbPolyline
 90
        2
 70
     0
 43
0.5
 10
-404.671970554926
 20
245.382389580974
 10
-394.921970554926
 20
251.007389580974
  0
LWPOLYLINE
  5
A2
330
1F
100
AcDbEntity
  8
Sichtbare_Kanten_TC_020513_DIN_
  6
Continuous
 62
     7
100
AcDbPolyline
 90
        2
 70
     0
 43
0.5
 10
-398.371970554926
 20
242.830225919226
 10
-398.371970554926
 20
247.934553242721
  0
LWPOLYLINE
  5
A3
330
1F
100
AcDbEntity
  8
Sichtbare_Kanten_TC_020513_DIN_
  6
Continuous
 62
     7
100
AcDbPolyline
 90
        2
 70
     0
 43
0.5
 10
-395.109366474984
 20
240.731367862919
 10
-398.184366474984
 20
242.505406324458
  0
LWPOLYLINE
  5
A4
330
1F
100
AcDbEntity
  8
Sichtbare_Kanten_TC_020513_DIN_
  6
Continuous
 62
     7
100
AcDbPolyline
 90
        2
 70
     0
 43
0.5
 10
-397.621970554926
 20
243.046812390951
 10
-394.734574634867
 20
241.381007052456
  0
LWPOLYLINE
  5
A5
330
1F
100
AcDbEntity
  8
Sichtbare_Kanten_TC_020513_DIN_
  6
Continuous
 62
     7
100
AcDbPolyline
 90
        2
 70
     0
 43
0.5
 10
-397.621970554926
 20
247.934553242721
 10
-397.621970554926
 20
243.046812390951
  0
LWPOLYLINE
  5
A6
330
1F
100
AcDbEntity
  8
Sichtbare_Kanten_TC_020513_DIN_
  6
Continuous
 62
     7
100
AcDbPolyline
 90
        2
 70
     0
 43
0.5
 10
-393.796970554926
 20
247.68596939466
 10
-394.921970554926
 20
246.132389580974
  0
LWPOLYLINE
  5
A7
330
1F
100
AcDbEntity
  8
Sichtbare_Kanten_TC_020513_DIN_
  6
Continuous
 62
     7
100
AcDbPolyline
 90
        2
 70
     0
 43
0.5
 10
-393.796970554926
 20
241.921572073072
 10
-393.796970554926
 20
247.68596939466
  0
LWPOLYLINE
  5
A8
330
1F
100
AcDbEntity
  8
Sichtbare_Kanten_TC_020513_DIN_
  6
Continuous
 62
     7
100
AcDbPolyline
 90
        2
 70
     0
 43
0.5
 10
-393.046970554926
 20
248.843207088875
 10
-393.046970554926
 20
241.921572073072
  0
LWPOLYLINE
  5
A9
330
1F
100
AcDbEntity
  8
Sichtbare_Kanten_TC_020513_DIN_
  6
Continuous
 62
     7
100
AcDbPolyline
 90
        2
 70
     0
 43
0.5
 10
-394.921970554926
 20
247.411145093614
 10
-393.7256994144159
 20
249.063147489694
  0
LWPOLYLINE
  5
AA
330
1F
100
AcDbEntity
  8
Sichtbare_Kanten_TC_020513_DIN_
  6
Continuous
 62
     7
100
AcDbPolyline
 90
        2
 70
     0
 43
0.5
 10
-396.118241695435
 20
249.063147489694
 10
-394.921970554926
 20
247.411145093614
  0
LWPOLYLINE
  5
AB
330
1F
100
AcDbEntity
  8
Sichtbare_Kanten_TC_020513_DIN_
  6
Continuous
 62
     7
100
AcDbPolyline
 90
        2
 70
     0
 43
0.5
 10
-396.796970554926
 20
243.69561053461
 10
-396.796970554926
 20
248.843207088875
  0
LWPOLYLINE
  5
AC
330
1F
100
AcDbEntity
  8
Sichtbare_Kanten_TC_020513_DIN_
  6
Continuous
 62
     7
100
AcDbPolyline
 90
        2
 70
     0
 43
0.5
 10
-396.046970554926
 20
247.68596939466
 10
-396.046970554926
 20
243.69561053461
  0
LWPOLYLINE
  5
AD
330
1F
100
AcDbEntity
  8
Sichtbare_Kanten_TC_020513_DIN_
  6
Continuous
 62
     7
100
AcDbPolyline
 90
        2
 70
     0
 43
0.5
 10
-394.921970554926
 20
246.132389580974
 10
-396.046970554926
 20
247.68596939466
  0
LWPOLYLINE
  5
AE
330
1F
100
AcDbEntity
  8
Sichtbare_Kanten_TC_020513_DIN_
  6
Continuous
 62
     7
100
AcDbPolyline
 90
        2
 70
     0
 43
0.5
 10
-450.496802844746
 20
221.782389580974
 10
-442.806661999676
 20
263.782389580974
  0
LWPOLYLINE
  5
AF
330
1F
100
AcDbEntity
  8
Sichtbare_Kanten_TC_020513_DIN_
  6
Continuous
 62
     7
100
AcDbPolyline
 90
        2
 70
     0
 43
0.5
 10
-347.037279110175
 20
263.782389580974
 10
-339.347138265105
 20
221.782389580974
  0
LWPOLYLINE
  5
B0
330
1F
100
AcDbEntity
  8
Sichtbare_Kanten_TC_020513_DIN_
  6
Continuous
 62
     7
100
AcDbPolyline
 90
        2
 70
     0
 43
0.5
 10
-455.421970554926
 20
194.582389580974
 10
-455.421970554926
 20
191.782389580974
  0
LWPOLYLINE
  5
B1
330
1F
100
AcDbEntity
  8
Sichtbare_Kanten_TC_020513_DIN_
  6
Continuous
 62
     7
100
AcDbPolyline
 90
        2
 70
     0
 43
0.5
 10
-455.421970554926
 20
200.582389580974
 10
-455.421970554926
 20
199.982389580974
  0
LWPOLYLINE
  5
B2
330
1F
100
AcDbEntity
  8
Sichtbare_Kanten_TC_020513_DIN_
  6
Continuous
 62
     7
100
AcDbPolyline
 90
        2
 70
     0
 43
0.5
 10
-455.421970554926
 20
203.582389580974
 10
-455.421970554926
 20
202.982389580974
  0
LWPOLYLINE
  5
B3
330
1F
100
AcDbEntity
  8
Sichtbare_Kanten_TC_020513_DIN_
  6
Continuous
 62
     7
100
AcDbPolyline
 90
        2
 70
     0
 43
0.5
 10
-455.421970554926
 20
206.582389580974
 10
-455.421970554926
 20
205.982389580973
  0
LWPOLYLINE
  5
B4
330
1F
100
AcDbEntity
  8
Sichtbare_Kanten_TC_020513_DIN_
  6
Continuous
 62
     7
100
AcDbPolyline
 90
        2
 70
     0
 43
0.5
 10
-455.421970554926
 20
182.782389580974
 10
-455.421970554926
 20
173.782389580974
  0
LWPOLYLINE
  5
B5
330
1F
100
AcDbEntity
  8
Sichtbare_Kanten_TC_020513_DIN_
  6
Continuous
 62
     7
100
AcDbPolyline
 90
        2
 70
     0
 43
0.5
 10
-334.421970554926
 20
173.782389580974
 10
-340.421970554926
 20
173.782389580974
  0
LWPOLYLINE
  5
B6
330
1F
100
AcDbEntity
  8
Sichtbare_Kanten_TC_020513_DIN_
  6
Continuous
 62
     7
100
AcDbPolyline
 90
        2
 70
     0
 43
0.5
 10
-449.421970554926
 20
173.782389580974
 10
-455.421970554926
 20
173.782389580974
  0
LWPOLYLINE
  5
B7
330
1F
100
AcDbEntity
  8
Sichtbare_Kanten_TC_020513_DIN_
  6
Continuous
 62
     7
100
AcDbPolyline
 90
        2
 70
     0
 43
0.5
 10
-455.421970554926
 20
197.582389580974
 10
-455.421970554926
 20
196.982389580974
  0
LWPOLYLINE
  5
B8
330
1F
100
AcDbEntity
  8
Sichtbare_Kanten_TC_020513_DIN_
  6
Continuous
 62
     7
100
AcDbPolyline
 90
        2
 70
     0
 43
0.5
 10
-334.421970554926
 20
196.982389580974
 10
-334.421970554926
 20
197.582389580974
  0
LWPOLYLINE
  5
B9
330
1F
100
AcDbEntity
  8
Sichtbare_Kanten_TC_020513_DIN_
  6
Continuous
 62
     7
100
AcDbPolyline
 90
        2
 70
     0
 43
0.5
 10
-334.421970554926
 20
205.982389580973
 10
-334.421970554926
 20
206.582389580974
  0
LWPOLYLINE
  5
BA
330
1F
100
AcDbEntity
  8
Sichtbare_Kanten_TC_020513_DIN_
  6
Continuous
 62
     7
100
AcDbPolyline
 90
        2
 70
     0
 43
0.5
 10
-334.421970554926
 20
202.982389580974
 10
-334.421970554926
 20
203.582389580974
  0
LWPOLYLINE
  5
BB
330
1F
100
AcDbEntity
  8
Sichtbare_Kanten_TC_020513_DIN_
  6
Continuous
 62
     7
100
AcDbPolyline
 90
        2
 70
     0
 43
0.5
 10
-334.421970554926
 20
199.982389580974
 10
-334.421970554926
 20
200.582389580974
  0
LWPOLYLINE
  5
BC
330
1F
100
AcDbEntity
  8
Sichtbare_Kanten_TC_020513_DIN_
  6
Continuous
 62
     7
100
AcDbPolyline
 90
        2
 70
     0
 43
0.5
 10
-334.421970554926
 20
191.782389580974
 10
-334.421970554926
 20
194.582389580974
  0
LWPOLYLINE
  5
BD
330
1F
100
AcDbEntity
  8
Sichtbare_Kanten_TC_020513_DIN_
  6
Continuous
 62
     7
100
AcDbPolyline
 90
        2
 70
     0
 43
0.5
 10
-334.421970554926
 20
173.782389580974
 10
-334.421970554926
 20
182.782389580974
  0
LWPOLYLINE
  5
BE
330
1F
100
AcDbEntity
  8
Sichtbare_Kanten_TC_020513_DIN_
  6
Continuous
 62
     7
100
AcDbPolyline
 90
        2
 70
     0
 43
0.5
 10
-334.5200856287869
 20
210.318248830524
 10
-346.971605404412
 20
278.322702989705
  0
LWPOLYLINE
  5
BF
330
1F
100
AcDbEntity
  8
Sichtbare_Kanten_TC_020513_DIN_
  6
Continuous
 62
     7
100
AcDbPolyline
 90
        2
 70
     0
 43
0.5
 10
-442.87233570544
 20
278.322702989705
 10
-455.323855481064
 20
210.318248830524
  0
LWPOLYLINE
  5
C0
330
1F
100
AcDbEntity
  8
Sichtbare_Kanten_TC_020513_DIN_
  6
Continuous
 62
     7
100
AcDbPolyline
 90
        2
 70
     0
 43
0.5
 10
-339.347138265105
 20
221.782389580974
 10
-450.496802844746
 20
221.782389580974
  0
LWPOLYLINE
  5
C1
330
1F
100
AcDbEntity
  8
Sichtbare_Kanten_TC_020513_DIN_
  6
Continuous
 62
     7
100
AcDbPolyline
 90
        2
 70
     0
 43
0.5
 10
-347.037279110175
 20
263.782389580974
 10
-442.806661999676
 20
263.782389580974
  0
LWPOLYLINE
  5
C2
330
1F
100
AcDbEntity
  8
Sichtbare_Kanten_TC_020513_DIN_
  6
Continuous
 62
     7
100
AcDbPolyline
 90
        2
 70
     0
 43
0.5
 10
-439.1177643734999
 20
265.514440388543
 10
-350.726176736352
 20
265.514440388543
  0
LWPOLYLINE
  5
C3
330
1F
100
AcDbEntity
  8
Sichtbare_Kanten_TC_020513_DIN_
  6
Continuous
 62
     7
100
AcDbPolyline
 90
        2
 70
     0
 43
0.5
 10
-342.4017637645659
 20
220.050338773405
 10
-447.442177345286
 20
220.050338773405
  0
LWPOLYLINE
  5
C4
330
1F
100
AcDbEntity
  8
Sichtbare_Kanten_TC_020513_DIN_
  6
Continuous
 62
     7
100
AcDbPolyline
 90
        2
 70
     0
 43
0.5
 10
-454.496044629
 20
195.282389580974
 10
-454.421970554926
 20
196.282389580974
  0
LWPOLYLINE
  5
C5
330
1F
100
AcDbEntity
  8
Sichtbare_Kanten_TC_020513_DIN_
  6
Continuous
 62
     7
100
AcDbPolyline
 90
        2
 70
     0
 43
0.5
 10
-335.171970554926
 20
195.282389580974
 10
-335.171970554926
 20
196.282389580974
  0
LWPOLYLINE
  5
C6
330
1F
100
AcDbEntity
  8
Sichtbare_Kanten_TC_020513_DIN_
  6
Continuous
 62
     7
100
AcDbPolyline
 90
        2
 70
     0
 43
0.5
 10
-335.171970554926
 20
198.282389580974
 10
-335.171970554926
 20
199.282389580974
  0
LWPOLYLINE
  5
C7
330
1F
100
AcDbEntity
  8
Sichtbare_Kanten_TC_020513_DIN_
  6
Continuous
 62
     7
100
AcDbPolyline
 90
        2
 70
     0
 43
0.5
 10
-334.755370289585
 20
199.648989846314
 10
-334.421970554926
 20
199.648989846314
  0
LWPOLYLINE
  5
C8
330
1F
100
AcDbEntity
  8
Sichtbare_Kanten_TC_020513_DIN_
  6
Continuous
 62
     7
100
AcDbPolyline
 90
        2
 70
     0
 43
0.5
 10
-328.921970554926
 20
199.782389580974
 10
-328.921970554926
 20
191.282389580974
  0
LWPOLYLINE
  5
C9
330
1F
100
AcDbEntity
  8
Sichtbare_Kanten_TC_020513_DIN_
  6
Continuous
 62
     7
100
AcDbPolyline
 90
        2
 70
     0
 43
0.5
 10
-328.921970554926
 20
186.782389580974
 10
-328.921970554926
 20
191.282389580974
  0
LWPOLYLINE
  5
CA
330
1F
100
AcDbEntity
  8
Sichtbare_Kanten_TC_020513_DIN_
  6
Continuous
 62
     7
100
AcDbPolyline
 90
        2
 70
     0
 43
0.5
 10
-328.921970554926
 20
199.782389580974
 10
-334.421970554926
 20
199.782389580974
  0
LWPOLYLINE
  5
CB
330
1F
100
AcDbEntity
  8
Sichtbare_Kanten_TC_020513_DIN_
  6
Continuous
 62
     7
100
AcDbPolyline
 90
        2
 70
     0
 43
0.5
 10
-468.671970554926
 20
188.882389580974
 10
-468.671970554926
 20
188.657389580974
  0
LWPOLYLINE
  5
CC
330
1F
100
AcDbEntity
  8
Sichtbare_Kanten_TC_020513_DIN_
  6
Continuous
 62
     7
100
AcDbPolyline
 90
        2
 70
     0
 43
0.5
 10
-468.421970554926
 20
188.882389580974
 10
-468.421970554926
 20
188.657389580974
  0
LWPOLYLINE
  5
CD
330
1F
100
AcDbEntity
  8
Sichtbare_Kanten_TC_020513_DIN_
  6
Continuous
 62
     7
100
AcDbPolyline
 90
        2
 70
     0
 43
0.5
 10
-468.671970554926
 20
195.032389580974
 10
-468.671970554926
 20
188.882389580974
  0
LWPOLYLINE
  5
CE
330
1F
100
AcDbEntity
  8
Sichtbare_Kanten_TC_020513_DIN_
  6
Continuous
 62
     7
100
AcDbPolyline
 90
        2
 70
     0
 43
0.5
 10
-468.421970554926
 20
195.032389580974
 10
-468.421970554926
 20
188.882389580974
  0
LWPOLYLINE
  5
CF
330
1F
100
AcDbEntity
  8
Sichtbare_Kanten_TC_020513_DIN_
  6
Continuous
 62
     7
100
AcDbPolyline
 90
        2
 70
     0
 43
0.5
 10
-469.171970554926
 20
190.882389580974
 10
-470.171970554926
 20
190.882389580974
  0
LWPOLYLINE
  5
D0
330
1F
100
AcDbEntity
  8
Sichtbare_Kanten_TC_020513_DIN_
  6
Continuous
 62
     7
100
AcDbPolyline
 90
        2
 70
     0
 43
0.5
 10
-469.171970554926
 20
190.882389580974
 10
-469.171970554926
 20
191.682389580974
  0
LWPOLYLINE
  5
D1
330
1F
100
AcDbEntity
  8
Sichtbare_Kanten_TC_020513_DIN_
  6
Continuous
 62
     7
100
AcDbPolyline
 90
        2
 70
     0
 43
0.5
 10
-470.171970554926
 20
191.682389580974
 10
-469.171970554926
 20
191.682389580974
  0
LWPOLYLINE
  5
D2
330
1F
100
AcDbEntity
  8
Sichtbare_Kanten_TC_020513_DIN_
  6
Continuous
 62
     7
100
AcDbPolyline
 90
        2
 70
     0
 43
0.5
 10
-470.171970554926
 20
193.532389580974
 10
-470.171970554926
 20
191.682389580974
  0
LWPOLYLINE
  5
D3
330
1F
100
AcDbEntity
  8
Sichtbare_Kanten_TC_020513_DIN_
  6
Continuous
 62
     7
100
AcDbPolyline
 90
        2
 70
     0
 43
0.5
 10
-470.171970554926
 20
190.882389580974
 10
-470.171970554926
 20
189.032389580974
  0
LWPOLYLINE
  5
D4
330
1F
100
AcDbEntity
  8
Sichtbare_Kanten_TC_020513_DIN_
  6
Continuous
 62
     7
100
AcDbPolyline
 90
        2
 70
     0
 43
0.5
 10
-468.371970554926
 20
193.532389580974
 10
-468.371970554926
 20
189.032389580974
  0
LWPOLYLINE
  5
D5
330
1F
100
AcDbEntity
  8
Sichtbare_Kanten_TC_020513_DIN_
  6
Continuous
 62
     7
100
AcDbPolyline
 90
        2
 70
     0
 43
0.5
 10
-461.921970554926
 20
195.282389580974
 10
-461.921970554926
 20
187.282389580974
  0
LWPOLYLINE
  5
D6
330
1F
100
AcDbEntity
  8
Sichtbare_Kanten_TC_020513_DIN_
  6
Continuous
 62
     7
100
AcDbPolyline
 90
        2
 70
     0
 43
0.5
 10
-468.3219705549259
 20
195.282389580974
 10
-468.3219705549259
 20
187.282389580974
  0
LWPOLYLINE
  5
D7
330
1F
100
AcDbEntity
  8
Sichtbare_Kanten_TC_020513_DIN_
  6
Continuous
 62
     7
100
AcDbPolyline
 90
        2
 70
     0
 43
0.5
 10
-462.021970554926
 20
195.282389580974
 10
-462.021970554926
 20
187.282389580974
  0
LWPOLYLINE
  5
D8
330
1F
100
AcDbEntity
  8
Sichtbare_Kanten_TC_020513_DIN_
  6
Continuous
 62
     7
100
AcDbPolyline
 90
        2
 70
     0
 43
0.5
 10
-468.671970554926
 20
188.657389580974
 10
-468.421970554926
 20
188.657389580974
  0
LWPOLYLINE
  5
D9
330
1F
100
AcDbEntity
  8
Sichtbare_Kanten_TC_020513_DIN_
  6
Continuous
 62
     7
100
AcDbPolyline
 90
        2
 70
     0
 43
0.5
 10
-468.671970554926
 20
195.032389580974
 10
-468.421970554926
 20
195.032389580974
  0
LWPOLYLINE
  5
DA
330
1F
100
AcDbEntity
  8
Sichtbare_Kanten_TC_020513_DIN_
  6
Continuous
 62
     7
100
AcDbPolyline
 90
        2
 70
     0
 43
0.5
 10
-468.671970554926
 20
189.032389580974
 10
-470.171970554926
 20
189.032389580974
  0
LWPOLYLINE
  5
DB
330
1F
100
AcDbEntity
  8
Sichtbare_Kanten_TC_020513_DIN_
  6
Continuous
 62
     7
100
AcDbPolyline
 90
        2
 70
     0
 43
0.5
 10
-468.671970554926
 20
193.532389580974
 10
-470.171970554926
 20
193.532389580974
  0
LWPOLYLINE
  5
DC
330
1F
100
AcDbEntity
  8
Sichtbare_Kanten_TC_020513_DIN_
  6
Continuous
 62
     7
100
AcDbPolyline
 90
        2
 70
     0
 43
0.5
 10
-461.921970554926
 20
189.032389580974
 10
-462.021970554926
 20
189.032389580974
  0
LWPOLYLINE
  5
DD
330
1F
100
AcDbEntity
  8
Sichtbare_Kanten_TC_020513_DIN_
  6
Continuous
 62
     7
100
AcDbPolyline
 90
        2
 70
     0
 43
0.5
 10
-461.921970554926
 20
193.532389580974
 10
-462.021970554926
 20
193.532389580974
  0
LWPOLYLINE
  5
DE
330
1F
100
AcDbEntity
  8
Sichtbare_Kanten_TC_020513_DIN_
  6
Continuous
 62
     7
100
AcDbPolyline
 90
        2
 70
     0
 43
0.5
 10
-468.3219705549259
 20
189.032389580974
 10
-468.371970554926
 20
189.032389580974
  0
LWPOLYLINE
  5
DF
330
1F
100
AcDbEntity
  8
Sichtbare_Kanten_TC_020513_DIN_
  6
Continuous
 62
     7
100
AcDbPolyline
 90
        2
 70
     0
 43
0.5
 10
-468.3219705549259
 20
193.532389580974
 10
-468.371970554926
 20
193.532389580974
  0
LWPOLYLINE
  5
E0
330
1F
100
AcDbEntity
  8
Sichtbare_Kanten_TC_020513_DIN_
  6
Continuous
 62
     7
100
AcDbPolyline
 90
        2
 70
     0
 43
0.5
 10
-468.371970554926
 20
189.532389580974
 10
-468.421970554926
 20
189.532389580974
  0
LWPOLYLINE
  5
E1
330
1F
100
AcDbEntity
  8
Sichtbare_Kanten_TC_020513_DIN_
  6
Continuous
 62
     7
100
AcDbPolyline
 90
        2
 70
     0
 43
0.5
 10
-468.371970554926
 20
193.032389580974
 10
-468.421970554926
 20
193.032389580974
  0
LWPOLYLINE
  5
E2
330
1F
100
AcDbEntity
  8
Sichtbare_Kanten_TC_020513_DIN_
  6
Continuous
 62
     7
100
AcDbPolyline
 90
        2
 70
     0
 43
0.5
 10
-460.921970554926
 20
187.282389580974
 10
-461.921970554926
 20
187.282389580974
  0
LWPOLYLINE
  5
E3
330
1F
100
AcDbEntity
  8
Sichtbare_Kanten_TC_020513_DIN_
  6
Continuous
 62
     7
100
AcDbPolyline
 90
        2
 70
     0
 43
0.5
 10
-460.921970554926
 20
195.282389580974
 10
-461.921970554926
 20
195.282389580974
  0
LWPOLYLINE
  5
E4
330
1F
100
AcDbEntity
  8
Sichtbare_Kanten_TC_020513_DIN_
  6
Continuous
 62
     7
100
AcDbPolyline
 90
        2
 70
     0
 43
0.5
 10
-462.021970554926
 20
187.282389580974
 10
-468.3219705549259
 20
187.282389580974
  0
LWPOLYLINE
  5
E5
330
1F
100
AcDbEntity
  8
Sichtbare_Kanten_TC_020513_DIN_
  6
Continuous
 62
     7
100
AcDbPolyline
 90
        2
 70
     0
 43
0.5
 10
-462.021970554926
 20
195.282389580974
 10
-468.3219705549259
 20
195.282389580974
  0
LWPOLYLINE
  5
E6
330
1F
100
AcDbEntity
  8
Sichtbare_Kanten_TC_020513_DIN_
  6
Continuous
 62
     7
100
AcDbPolyline
 90
        2
 70
     0
 43
0.5
 10
-454.671970554926
 20
195.282389580974
 10
-454.671970554926
 20
196.282389580974
  0
LWPOLYLINE
  5
E7
330
1F
100
AcDbEntity
  8
Sichtbare_Kanten_TC_020513_DIN_
  6
Continuous
 62
     7
100
AcDbPolyline
 90
        2
 70
     0
 43
0.5
 10
-454.671970554926
 20
198.282389580974
 10
-454.671970554926
 20
199.282389580974
  0
LWPOLYLINE
  5
E8
330
1F
100
AcDbEntity
  8
Sichtbare_Kanten_TC_020513_DIN_
  6
Continuous
 62
     7
100
AcDbPolyline
 90
        2
 70
     0
 43
0.5
 10
-455.421970554926
 20
199.648989846314
 10
-455.0885708202659
 20
199.648989846314
  0
LWPOLYLINE
  5
E9
330
1F
100
AcDbEntity
  8
Sichtbare_Kanten_TC_020513_DIN_
  6
Continuous
 62
     7
100
AcDbPolyline
 90
        2
 70
     0
 43
0.5
 10
-460.921970554926
 20
199.782389580974
 10
-460.921970554926
 20
191.282389580974
  0
LWPOLYLINE
  5
EA
330
1F
100
AcDbEntity
  8
Sichtbare_Kanten_TC_020513_DIN_
  6
Continuous
 62
     7
100
AcDbPolyline
 90
        2
 70
     0
 43
0.5
 10
-460.921970554926
 20
186.782389580974
 10
-460.921970554926
 20
191.282389580974
  0
LWPOLYLINE
  5
EB
330
1F
100
AcDbEntity
  8
Sichtbare_Kanten_TC_020513_DIN_
  6
Continuous
 62
     7
100
AcDbPolyline
 90
        2
 70
     0
 43
0.5
 10
-455.421970554926
 20
199.782389580974
 10
-460.921970554926
 20
199.782389580974
  0
LWPOLYLINE
  5
EC
330
1F
100
AcDbEntity
  8
Sichtbare_Kanten_TC_020513_DIN_
  6
Continuous
 62
     7
100
AcDbPolyline
 90
        2
 70
     0
 43
0.5
 10
-321.171970554926
 20
188.882389580974
 10
-321.171970554926
 20
188.657389580974
  0
LWPOLYLINE
  5
ED
330
1F
100
AcDbEntity
  8
Sichtbare_Kanten_TC_020513_DIN_
  6
Continuous
 62
     7
100
AcDbPolyline
 90
        2
 70
     0
 43
0.5
 10
-321.421970554926
 20
188.882389580974
 10
-321.421970554926
 20
188.657389580974
  0
LWPOLYLINE
  5
EE
330
1F
100
AcDbEntity
  8
Sichtbare_Kanten_TC_020513_DIN_
  6
Continuous
 62
     7
100
AcDbPolyline
 90
        2
 70
     0
 43
0.5
 10
-321.171970554926
 20
195.032389580974
 10
-321.171970554926
 20
188.882389580974
  0
LWPOLYLINE
  5
EF
330
1F
100
AcDbEntity
  8
Sichtbare_Kanten_TC_020513_DIN_
  6
Continuous
 62
     7
100
AcDbPolyline
 90
        2
 70
     0
 43
0.5
 10
-321.421970554926
 20
195.032389580974
 10
-321.421970554926
 20
188.882389580974
  0
LWPOLYLINE
  5
F0
330
1F
100
AcDbEntity
  8
Sichtbare_Kanten_TC_020513_DIN_
  6
Continuous
 62
     7
100
AcDbPolyline
 90
        2
 70
     0
 43
0.5
 10
-321.421970554926
 20
188.657389580974
 10
-321.171970554926
 20
188.657389580974
  0
LWPOLYLINE
  5
F1
330
1F
100
AcDbEntity
  8
Sichtbare_Kanten_TC_020513_DIN_
  6
Continuous
 62
     7
100
AcDbPolyline
 90
        2
 70
     0
 43
0.5
 10
-321.421970554926
 20
195.032389580974
 10
-321.171970554926
 20
195.032389580974
  0
LWPOLYLINE
  5
F2
330
1F
100
AcDbEntity
  8
Sichtbare_Kanten_TC_020513_DIN_
  6
Continuous
 62
     7
100
AcDbPolyline
 90
        2
 70
     0
 43
0.5
 10
-319.671970554926
 20
190.882389580974
 10
-320.671970554926
 20
190.882389580974
  0
LWPOLYLINE
  5
F3
330
1F
100
AcDbEntity
  8
Sichtbare_Kanten_TC_020513_DIN_
  6
Continuous
 62
     7
100
AcDbPolyline
 90
        2
 70
     0
 43
0.5
 10
-320.671970554926
 20
191.682389580974
 10
-320.671970554926
 20
190.882389580974
  0
LWPOLYLINE
  5
F4
330
1F
100
AcDbEntity
  8
Sichtbare_Kanten_TC_020513_DIN_
  6
Continuous
 62
     7
100
AcDbPolyline
 90
        2
 70
     0
 43
0.5
 10
-320.671970554926
 20
191.682389580974
 10
-319.671970554926
 20
191.682389580974
  0
LWPOLYLINE
  5
F5
330
1F
100
AcDbEntity
  8
Sichtbare_Kanten_TC_020513_DIN_
  6
Continuous
 62
     7
100
AcDbPolyline
 90
        2
 70
     0
 43
0.5
 10
-319.671970554926
 20
193.532389580974
 10
-319.671970554926
 20
191.682389580974
  0
LWPOLYLINE
  5
F6
330
1F
100
AcDbEntity
  8
Sichtbare_Kanten_TC_020513_DIN_
  6
Continuous
 62
     7
100
AcDbPolyline
 90
        2
 70
     0
 43
0.5
 10
-319.671970554926
 20
190.882389580974
 10
-319.671970554926
 20
189.032389580974
  0
LWPOLYLINE
  5
F7
330
1F
100
AcDbEntity
  8
Sichtbare_Kanten_TC_020513_DIN_
  6
Continuous
 62
     7
100
AcDbPolyline
 90
        2
 70
     0
 43
0.5
 10
-321.471970554926
 20
193.532389580974
 10
-321.471970554926
 20
189.032389580974
  0
LWPOLYLINE
  5
F8
330
1F
100
AcDbEntity
  8
Sichtbare_Kanten_TC_020513_DIN_
  6
Continuous
 62
     7
100
AcDbPolyline
 90
        2
 70
     0
 43
0.5
 10
-327.921970554926
 20
195.282389580974
 10
-327.921970554926
 20
187.282389580974
  0
LWPOLYLINE
  5
F9
330
1F
100
AcDbEntity
  8
Sichtbare_Kanten_TC_020513_DIN_
  6
Continuous
 62
     7
100
AcDbPolyline
 90
        2
 70
     0
 43
0.5
 10
-321.521970554926
 20
195.282389580974
 10
-321.521970554926
 20
187.282389580974
  0
LWPOLYLINE
  5
FA
330
1F
100
AcDbEntity
  8
Sichtbare_Kanten_TC_020513_DIN_
  6
Continuous
 62
     7
100
AcDbPolyline
 90
        2
 70
     0
 43
0.5
 10
-327.8219705549259
 20
195.282389580974
 10
-327.8219705549259
 20
187.282389580974
  0
LWPOLYLINE
  5
FB
330
1F
100
AcDbEntity
  8
Sichtbare_Kanten_TC_020513_DIN_
  6
Continuous
 62
     7
100
AcDbPolyline
 90
        2
 70
     0
 43
0.5
 10
-327.8219705549259
 20
189.032389580974
 10
-327.921970554926
 20
189.032389580974
  0
LWPOLYLINE
  5
FC
330
1F
100
AcDbEntity
  8
Sichtbare_Kanten_TC_020513_DIN_
  6
Continuous
 62
     7
100
AcDbPolyline
 90
        2
 70
     0
 43
0.5
 10
-327.8219705549259
 20
193.532389580974
 10
-327.921970554926
 20
193.532389580974
  0
LWPOLYLINE
  5
FD
330
1F
100
AcDbEntity
  8
Sichtbare_Kanten_TC_020513_DIN_
  6
Continuous
 62
     7
100
AcDbPolyline
 90
        2
 70
     0
 43
0.5
 10
-321.471970554926
 20
189.032389580974
 10
-321.521970554926
 20
189.032389580974
  0
LWPOLYLINE
  5
FE
330
1F
100
AcDbEntity
  8
Sichtbare_Kanten_TC_020513_DIN_
  6
Continuous
 62
     7
100
AcDbPolyline
 90
        2
 70
     0
 43
0.5
 10
-321.471970554926
 20
193.532389580974
 10
-321.521970554926
 20
193.532389580974
  0
LWPOLYLINE
  5
FF
330
1F
100
AcDbEntity
  8
Sichtbare_Kanten_TC_020513_DIN_
  6
Continuous
 62
     7
100
AcDbPolyline
 90
        2
 70
     0
 43
0.5
 10
-319.671970554926
 20
189.032389580974
 10
-321.171970554926
 20
189.032389580974
  0
LWPOLYLINE
  5
100
330
1F
100
AcDbEntity
  8
Sichtbare_Kanten_TC_020513_DIN_
  6
Continuous
 62
     7
100
AcDbPolyline
 90
        2
 70
     0
 43
0.5
 10
-319.671970554926
 20
193.532389580974
 10
-321.171970554926
 20
193.532389580974
  0
LWPOLYLINE
  5
101
330
1F
100
AcDbEntity
  8
Sichtbare_Kanten_TC_020513_DIN_
  6
Continuous
 62
     7
100
AcDbPolyline
 90
        2
 70
     0
 43
0.5
 10
-321.421970554926
 20
189.532389580974
 10
-321.471970554926
 20
189.532389580974
  0
LWPOLYLINE
  5
102
330
1F
100
AcDbEntity
  8
Sichtbare_Kanten_TC_020513_DIN_
  6
Continuous
 62
     7
100
AcDbPolyline
 90
        2
 70
     0
 43
0.5
 10
-321.421970554926
 20
193.032389580974
 10
-321.471970554926
 20
193.032389580974
  0
LWPOLYLINE
  5
103
330
1F
100
AcDbEntity
  8
Sichtbare_Kanten_TC_020513_DIN_
  6
Continuous
 62
     7
100
AcDbPolyline
 90
        2
 70
     0
 43
0.5
 10
-327.921970554926
 20
187.282389580974
 10
-328.921970554926
 20
187.282389580974
  0
LWPOLYLINE
  5
104
330
1F
100
AcDbEntity
  8
Sichtbare_Kanten_TC_020513_DIN_
  6
Continuous
 62
     7
100
AcDbPolyline
 90
        2
 70
     0
 43
0.5
 10
-327.921970554926
 20
195.282389580974
 10
-328.921970554926
 20
195.282389580974
  0
LWPOLYLINE
  5
105
330
1F
100
AcDbEntity
  8
Sichtbare_Kanten_TC_020513_DIN_
  6
Continuous
 62
     7
100
AcDbPolyline
 90
        2
 70
     0
 43
0.5
 10
-321.521970554926
 20
187.282389580974
 10
-327.8219705549259
 20
187.282389580974
  0
LWPOLYLINE
  5
106
330
1F
100
AcDbEntity
  8
Sichtbare_Kanten_TC_020513_DIN_
  6
Continuous
 62
     7
100
AcDbPolyline
 90
        2
 70
     0
 43
0.5
 10
-321.521970554926
 20
195.282389580974
 10
-327.8219705549259
 20
195.282389580974
  0
LWPOLYLINE
  5
107
330
1F
100
AcDbEntity
  8
Sichtbare_Kanten_TC_020513_DIN_
  6
Continuous
 62
     7
100
AcDbPolyline
 90
        2
 70
     0
 43
0.5
 10
-328.921970554926
 20
182.782389580974
 10
-340.421970554926
 20
182.782389580974
  0
LWPOLYLINE
  5
108
330
1F
100
AcDbEntity
  8
Sichtbare_Kanten_TC_020513_DIN_
  6
Continuous
 62
     7
100
AcDbPolyline
 90
        2
 70
     0
 43
0.5
 10
-449.421970554926
 20
182.782389580974
 10
-340.421970554926
 20
182.782389580974
  0
LWPOLYLINE
  5
109
330
1F
100
AcDbEntity
  8
Sichtbare_Kanten_TC_020513_DIN_
  6
Continuous
 62
     7
100
AcDbPolyline
 90
        2
 70
     0
 43
0.5
 10
-449.421970554926
 20
182.782389580974
 10
-460.921970554926
 20
182.782389580974
  0
LWPOLYLINE
  5
10A
330
1F
100
AcDbEntity
  8
Sichtbare_Kanten_TC_020513_DIN_
  6
Continuous
 62
     7
100
AcDbPolyline
 90
        2
 70
     0
 43
0.5
 10
-460.921970554926
 20
186.782389580974
 10
-455.421970554926
 20
191.782389580974
  0
LWPOLYLINE
  5
10B
330
1F
100
AcDbEntity
  8
Sichtbare_Kanten_TC_020513_DIN_
  6
Continuous
 62
     7
100
AcDbPolyline
 90
        2
 70
     0
 43
0.5
 10
-328.921970554926
 20
186.782389580974
 10
-334.421970554926
 20
191.782389580974
  0
LWPOLYLINE
  5
10C
330
1F
100
AcDbEntity
  8
Sichtbare_Kanten_TC_020513_DIN_
  6
Continuous
 62
     7
100
AcDbPolyline
 90
        2
 70
     0
 43
0.5
 10
-334.421970554926
 20
191.782389580974
 10
-340.421970554926
 20
191.782389580974
  0
LWPOLYLINE
  5
10D
330
1F
100
AcDbEntity
  8
Sichtbare_Kanten_TC_020513_DIN_
  6
Continuous
 62
     7
100
AcDbPolyline
 90
        2
 70
     0
 43
0.5
 10
-449.421970554926
 20
191.782389580974
 10
-340.421970554926
 20
191.782389580974
  0
LWPOLYLINE
  5
10E
330
1F
100
AcDbEntity
  8
Sichtbare_Kanten_TC_020513_DIN_
  6
Continuous
 62
     7
100
AcDbPolyline
 90
        2
 70
     0
 43
0.5
 10
-328.921970554926
 20
182.782389580974
 10
-328.921970554926
 20
186.782389580974
  0
LWPOLYLINE
  5
10F
330
1F
100
AcDbEntity
  8
Sichtbare_Kanten_TC_020513_DIN_
  6
Continuous
 62
     7
100
AcDbPolyline
 90
        2
 70
     0
 43
0.5
 10
-328.921970554926
 20
186.782389580974
 10
-340.421970554926
 20
186.782389580974
  0
LWPOLYLINE
  5
110
330
1F
100
AcDbEntity
  8
Sichtbare_Kanten_TC_020513_DIN_
  6
Continuous
 62
     7
100
AcDbPolyline
 90
        2
 70
     0
 43
0.5
 10
-449.421970554926
 20
186.782389580974
 10
-340.421970554926
 20
186.782389580974
  0
LWPOLYLINE
  5
111
330
1F
100
AcDbEntity
  8
Sichtbare_Kanten_TC_020513_DIN_
  6
Continuous
 62
     7
100
AcDbPolyline
 90
        2
 70
     0
 43
0.5
 10
-449.421970554926
 20
186.782389580974
 10
-460.921970554926
 20
186.782389580974
  0
LWPOLYLINE
  5
112
330
1F
100
AcDbEntity
  8
Sichtbare_Kanten_TC_020513_DIN_
  6
Continuous
 62
     7
100
AcDbPolyline
 90
        2
 70
     0
 43
0.5
 10
-460.921970554926
 20
182.782389580974
 10
-460.921970554926
 20
186.782389580974
  0
LWPOLYLINE
  5
113
330
1F
100
AcDbEntity
  8
Sichtbare_Kanten_TC_020513_DIN_
  6
Continuous
 62
     7
100
AcDbPolyline
 90
        2
 70
     0
 43
0.5
 10
-449.421970554926
 20
191.782389580974
 10
-455.421970554926
 20
191.782389580974
  0
LWPOLYLINE
  5
114
330
1F
100
AcDbEntity
  8
Sichtbare_Kanten_TC_020513_DIN_
  6
Continuous
 62
     7
100
AcDbPolyline
 90
        2
 70
     0
 43
0.5
 10
-335.121970554926
 20
196.282389580974
 10
-340.421970554926
 20
196.282389580974
  0
LWPOLYLINE
  5
115
330
1F
100
AcDbEntity
  8
Sichtbare_Kanten_TC_020513_DIN_
  6
Continuous
 62
     7
100
AcDbPolyline
 90
        2
 70
     0
 43
0.5
 10
-449.421970554926
 20
196.282389580974
 10
-340.421970554926
 20
196.282389580974
  0
LWPOLYLINE
  5
116
330
1F
100
AcDbEntity
  8
Sichtbare_Kanten_TC_020513_DIN_
  6
Continuous
 62
     7
100
AcDbPolyline
 90
        2
 70
     0
 43
0.5
 10
-449.421970554926
 20
196.282389580974
 10
-454.721970554926
 20
196.282389580974
  0
LWPOLYLINE
  5
117
330
1F
100
AcDbEntity
  8
Sichtbare_Kanten_TC_020513_DIN_
  6
Continuous
 62
     7
100
AcDbPolyline
 90
        2
 70
     0
 43
0.5
 10
-454.721970554926
 20
195.282389580974
 10
-449.421970554926
 20
195.282389580974
  0
LWPOLYLINE
  5
118
330
1F
100
AcDbEntity
  8
Sichtbare_Kanten_TC_020513_DIN_
  6
Continuous
 62
     7
100
AcDbPolyline
 90
        2
 70
     0
 43
0.5
 10
-340.421970554926
 20
195.282389580974
 10
-449.421970554926
 20
195.282389580974
  0
LWPOLYLINE
  5
119
330
1F
100
AcDbEntity
  8
Sichtbare_Kanten_TC_020513_DIN_
  6
Continuous
 62
     7
100
AcDbPolyline
 90
        2
 70
     0
 43
0.5
 10
-340.421970554926
 20
195.282389580974
 10
-335.121970554926
 20
195.282389580974
  0
LWPOLYLINE
  5
11A
330
1F
100
AcDbEntity
  8
Sichtbare_Kanten_TC_020513_DIN_
  6
Continuous
 62
     7
100
AcDbPolyline
 90
        2
 70
     0
 43
0.5
 10
-454.721970554926
 20
195.282389580974
 10
-455.421970554926
 20
194.582389580974
  0
LWPOLYLINE
  5
11B
330
1F
100
AcDbEntity
  8
Sichtbare_Kanten_TC_020513_DIN_
  6
Continuous
 62
     7
100
AcDbPolyline
 90
        2
 70
     0
 43
0.5
 10
-455.421970554926
 20
196.982389580974
 10
-454.721970554926
 20
196.282389580974
  0
LWPOLYLINE
  5
11C
330
1F
100
AcDbEntity
  8
Sichtbare_Kanten_TC_020513_DIN_
  6
Continuous
 62
     7
100
AcDbPolyline
 90
        2
 70
     0
 43
0.5
 10
-334.421970554926
 20
196.982389580974
 10
-335.121970554926
 20
196.282389580974
  0
LWPOLYLINE
  5
11D
330
1F
100
AcDbEntity
  8
Sichtbare_Kanten_TC_020513_DIN_
  6
Continuous
 62
     7
100
AcDbPolyline
 90
        2
 70
     0
 43
0.5
 10
-334.421970554926
 20
197.582389580974
 10
-335.121970554926
 20
198.282389580974
  0
LWPOLYLINE
  5
11E
330
1F
100
AcDbEntity
  8
Sichtbare_Kanten_TC_020513_DIN_
  6
Continuous
 62
     7
100
AcDbPolyline
 90
        2
 70
     0
 43
0.5
 10
-454.721970554926
 20
198.282389580974
 10
-449.421970554926
 20
198.282389580974
  0
LWPOLYLINE
  5
11F
330
1F
100
AcDbEntity
  8
Sichtbare_Kanten_TC_020513_DIN_
  6
Continuous
 62
     7
100
AcDbPolyline
 90
        2
 70
     0
 43
0.5
 10
-340.421970554926
 20
198.282389580974
 10
-449.421970554926
 20
198.282389580974
  0
LWPOLYLINE
  5
120
330
1F
100
AcDbEntity
  8
Sichtbare_Kanten_TC_020513_DIN_
  6
Continuous
 62
     7
100
AcDbPolyline
 90
        2
 70
     0
 43
0.5
 10
-340.421970554926
 20
198.282389580974
 10
-335.121970554926
 20
198.282389580974
  0
LWPOLYLINE
  5
121
330
1F
100
AcDbEntity
  8
Sichtbare_Kanten_TC_020513_DIN_
  6
Continuous
 62
     7
100
AcDbPolyline
 90
        2
 70
     0
 43
0.5
 10
-335.121970554926
 20
199.282389580974
 10
-340.421970554926
 20
199.282389580974
  0
LWPOLYLINE
  5
122
330
1F
100
AcDbEntity
  8
Sichtbare_Kanten_TC_020513_DIN_
  6
Continuous
 62
     7
100
AcDbPolyline
 90
        2
 70
     0
 43
0.5
 10
-449.421970554926
 20
199.282389580974
 10
-340.421970554926
 20
199.282389580974
  0
LWPOLYLINE
  5
123
330
1F
100
AcDbEntity
  8
Sichtbare_Kanten_TC_020513_DIN_
  6
Continuous
 62
     7
100
AcDbPolyline
 90
        2
 70
     0
 43
0.5
 10
-449.421970554926
 20
199.282389580974
 10
-454.721970554926
 20
199.282389580974
  0
LWPOLYLINE
  5
124
330
1F
100
AcDbEntity
  8
Sichtbare_Kanten_TC_020513_DIN_
  6
Continuous
 62
     7
100
AcDbPolyline
 90
        2
 70
     0
 43
0.5
 10
-334.421970554926
 20
194.582389580974
 10
-335.121970554926
 20
195.282389580974
  0
LWPOLYLINE
  5
125
330
1F
100
AcDbEntity
  8
Sichtbare_Kanten_TC_020513_DIN_
  6
Continuous
 62
     7
100
AcDbPolyline
 90
        2
 70
     0
 43
0.5
 10
-340.421970554926
 20
208.982389580974
 10
-449.421970554926
 20
208.982389580974
  0
LWPOLYLINE
  5
126
330
1F
100
AcDbEntity
  8
Sichtbare_Kanten_TC_020513_DIN_
  6
Continuous
 62
     7
100
AcDbPolyline
 90
        2
 70
     0
 43
0.5
 10
-454.721970554926
 20
208.282389580974
 10
-455.421970554926
 20
208.982389580974
  0
LWPOLYLINE
  5
127
330
1F
100
AcDbEntity
  8
Sichtbare_Kanten_TC_020513_DIN_
  6
Continuous
 62
     7
100
AcDbPolyline
 90
        2
 70
     0
 43
0.5
 10
-455.421970554926
 20
208.982389580974
 10
-449.421970554926
 20
208.982389580974
  0
LWPOLYLINE
  5
128
330
1F
100
AcDbEntity
  8
Sichtbare_Kanten_TC_020513_DIN_
  6
Continuous
 62
     7
100
AcDbPolyline
 90
        2
 70
     0
 43
0.5
 10
-449.421970554926
 20
208.282389580974
 10
-454.721970554926
 20
208.282389580974
  0
LWPOLYLINE
  5
129
330
1F
100
AcDbEntity
  8
Sichtbare_Kanten_TC_020513_DIN_
  6
Continuous
 62
     7
100
AcDbPolyline
 90
        2
 70
     0
 43
0.5
 10
-449.421970554926
 20
208.282389580974
 10
-340.421970554926
 20
208.282389580974
  0
LWPOLYLINE
  5
12A
330
1F
100
AcDbEntity
  8
Sichtbare_Kanten_TC_020513_DIN_
  6
Continuous
 62
     7
100
AcDbPolyline
 90
        2
 70
     0
 43
0.5
 10
-335.121970554926
 20
208.282389580974
 10
-334.421970554926
 20
208.982389580974
  0
LWPOLYLINE
  5
12B
330
1F
100
AcDbEntity
  8
Sichtbare_Kanten_TC_020513_DIN_
  6
Continuous
 62
     7
100
AcDbPolyline
 90
        2
 70
     0
 43
0.5
 10
-340.421970554926
 20
208.982389580974
 10
-334.421970554926
 20
208.982389580974
  0
LWPOLYLINE
  5
12C
330
1F
100
AcDbEntity
  8
Sichtbare_Kanten_TC_020513_DIN_
  6
Continuous
 62
     7
100
AcDbPolyline
 90
        2
 70
     0
 43
0.5
 10
-335.121970554926
 20
208.282389580974
 10
-340.421970554926
 20
208.282389580974
  0
LWPOLYLINE
  5
12D
330
1F
100
AcDbEntity
  8
Sichtbare_Kanten_TC_020513_DIN_
  6
Continuous
 62
     7
100
AcDbPolyline
 90
        2
 70
     0
 43
0.5
 10
-340.421970554926
 20
207.282389580974
 10
-449.421970554926
 20
207.282389580974
  0
LWPOLYLINE
  5
12E
330
1F
100
AcDbEntity
  8
Sichtbare_Kanten_TC_020513_DIN_
  6
Continuous
 62
     7
100
AcDbPolyline
 90
        2
 70
     0
 43
0.5
 10
-449.421970554926
 20
206.582389580974
 10
-340.421970554926
 20
206.582389580974
  0
LWPOLYLINE
  5
12F
330
1F
100
AcDbEntity
  8
Sichtbare_Kanten_TC_020513_DIN_
  6
Continuous
 62
     7
100
AcDbPolyline
 90
        2
 70
     0
 43
0.5
 10
-334.421970554926
 20
206.582389580974
 10
-335.121970554926
 20
207.282389580974
  0
LWPOLYLINE
  5
130
330
1F
100
AcDbEntity
  8
Sichtbare_Kanten_TC_020513_DIN_
  6
Continuous
 62
     7
100
AcDbPolyline
 90
        2
 70
     0
 43
0.5
 10
-340.421970554926
 20
207.282389580974
 10
-335.121970554926
 20
207.282389580974
  0
LWPOLYLINE
  5
131
330
1F
100
AcDbEntity
  8
Sichtbare_Kanten_TC_020513_DIN_
  6
Continuous
 62
     7
100
AcDbPolyline
 90
        2
 70
     0
 43
0.5
 10
-334.421970554926
 20
206.582389580974
 10
-340.421970554926
 20
206.582389580974
  0
LWPOLYLINE
  5
132
330
1F
100
AcDbEntity
  8
Sichtbare_Kanten_TC_020513_DIN_
  6
Continuous
 62
     7
100
AcDbPolyline
 90
        2
 70
     0
 43
0.5
 10
-454.721970554926
 20
207.282389580974
 10
-455.421970554926
 20
206.582389580974
  0
LWPOLYLINE
  5
133
330
1F
100
AcDbEntity
  8
Sichtbare_Kanten_TC_020513_DIN_
  6
Continuous
 62
     7
100
AcDbPolyline
 90
        2
 70
     0
 43
0.5
 10
-449.421970554926
 20
206.582389580974
 10
-455.421970554926
 20
206.582389580974
  0
LWPOLYLINE
  5
134
330
1F
100
AcDbEntity
  8
Sichtbare_Kanten_TC_020513_DIN_
  6
Continuous
 62
     7
100
AcDbPolyline
 90
        2
 70
     0
 43
0.5
 10
-454.721970554926
 20
207.282389580974
 10
-449.421970554926
 20
207.282389580974
  0
LWPOLYLINE
  5
135
330
1F
100
AcDbEntity
  8
Sichtbare_Kanten_TC_020513_DIN_
  6
Continuous
 62
     7
100
AcDbPolyline
 90
        2
 70
     0
 43
0.5
 10
-455.421970554926
 20
205.982389580973
 10
-449.421970554926
 20
205.982389580973
  0
LWPOLYLINE
  5
136
330
1F
100
AcDbEntity
  8
Sichtbare_Kanten_TC_020513_DIN_
  6
Continuous
 62
     7
100
AcDbPolyline
 90
        2
 70
     0
 43
0.5
 10
-334.421970554926
 20
205.982389580973
 10
-335.121970554926
 20
205.282389580974
  0
LWPOLYLINE
  5
137
330
1F
100
AcDbEntity
  8
Sichtbare_Kanten_TC_020513_DIN_
  6
Continuous
 62
     7
100
AcDbPolyline
 90
        2
 70
     0
 43
0.5
 10
-335.121970554926
 20
205.282389580974
 10
-340.421970554926
 20
205.282389580974
  0
LWPOLYLINE
  5
138
330
1F
100
AcDbEntity
  8
Sichtbare_Kanten_TC_020513_DIN_
  6
Continuous
 62
     7
100
AcDbPolyline
 90
        2
 70
     0
 43
0.5
 10
-340.421970554926
 20
205.982389580973
 10
-334.421970554926
 20
205.982389580973
  0
LWPOLYLINE
  5
139
330
1F
100
AcDbEntity
  8
Sichtbare_Kanten_TC_020513_DIN_
  6
Continuous
 62
     7
100
AcDbPolyline
 90
        2
 70
     0
 43
0.5
 10
-449.421970554926
 20
205.282389580974
 10
-340.421970554926
 20
205.282389580974
  0
LWPOLYLINE
  5
13A
330
1F
100
AcDbEntity
  8
Sichtbare_Kanten_TC_020513_DIN_
  6
Continuous
 62
     7
100
AcDbPolyline
 90
        2
 70
     0
 43
0.5
 10
-340.421970554926
 20
205.982389580973
 10
-449.421970554926
 20
205.982389580973
  0
LWPOLYLINE
  5
13B
330
1F
100
AcDbEntity
  8
Sichtbare_Kanten_TC_020513_DIN_
  6
Continuous
 62
     7
100
AcDbPolyline
 90
        2
 70
     0
 43
0.5
 10
-455.421970554926
 20
205.982389580973
 10
-454.721970554926
 20
205.282389580974
  0
LWPOLYLINE
  5
13C
330
1F
100
AcDbEntity
  8
Sichtbare_Kanten_TC_020513_DIN_
  6
Continuous
 62
     7
100
AcDbPolyline
 90
        2
 70
     0
 43
0.5
 10
-449.421970554926
 20
205.282389580974
 10
-454.721970554926
 20
205.282389580974
  0
LWPOLYLINE
  5
13D
330
1F
100
AcDbEntity
  8
Sichtbare_Kanten_TC_020513_DIN_
  6
Continuous
 62
     7
100
AcDbPolyline
 90
        2
 70
     0
 43
0.5
 10
-340.421970554926
 20
204.282389580974
 10
-449.421970554926
 20
204.282389580974
  0
LWPOLYLINE
  5
13E
330
1F
100
AcDbEntity
  8
Sichtbare_Kanten_TC_020513_DIN_
  6
Continuous
 62
     7
100
AcDbPolyline
 90
        2
 70
     0
 43
0.5
 10
-449.421970554926
 20
203.582389580974
 10
-340.421970554926
 20
203.582389580974
  0
LWPOLYLINE
  5
13F
330
1F
100
AcDbEntity
  8
Sichtbare_Kanten_TC_020513_DIN_
  6
Continuous
 62
     7
100
AcDbPolyline
 90
        2
 70
     0
 43
0.5
 10
-334.421970554926
 20
203.582389580974
 10
-335.121970554926
 20
204.282389580974
  0
LWPOLYLINE
  5
140
330
1F
100
AcDbEntity
  8
Sichtbare_Kanten_TC_020513_DIN_
  6
Continuous
 62
     7
100
AcDbPolyline
 90
        2
 70
     0
 43
0.5
 10
-340.421970554926
 20
204.282389580974
 10
-335.121970554926
 20
204.282389580974
  0
LWPOLYLINE
  5
141
330
1F
100
AcDbEntity
  8
Sichtbare_Kanten_TC_020513_DIN_
  6
Continuous
 62
     7
100
AcDbPolyline
 90
        2
 70
     0
 43
0.5
 10
-334.421970554926
 20
203.582389580974
 10
-340.421970554926
 20
203.582389580974
  0
LWPOLYLINE
  5
142
330
1F
100
AcDbEntity
  8
Sichtbare_Kanten_TC_020513_DIN_
  6
Continuous
 62
     7
100
AcDbPolyline
 90
        2
 70
     0
 43
0.5
 10
-454.721970554926
 20
204.282389580974
 10
-455.421970554926
 20
203.582389580974
  0
LWPOLYLINE
  5
143
330
1F
100
AcDbEntity
  8
Sichtbare_Kanten_TC_020513_DIN_
  6
Continuous
 62
     7
100
AcDbPolyline
 90
        2
 70
     0
 43
0.5
 10
-449.421970554926
 20
203.582389580974
 10
-455.421970554926
 20
203.582389580974
  0
LWPOLYLINE
  5
144
330
1F
100
AcDbEntity
  8
Sichtbare_Kanten_TC_020513_DIN_
  6
Continuous
 62
     7
100
AcDbPolyline
 90
        2
 70
     0
 43
0.5
 10
-454.721970554926
 20
204.282389580974
 10
-449.421970554926
 20
204.282389580974
  0
LWPOLYLINE
  5
145
330
1F
100
AcDbEntity
  8
Sichtbare_Kanten_TC_020513_DIN_
  6
Continuous
 62
     7
100
AcDbPolyline
 90
        2
 70
     0
 43
0.5
 10
-340.421970554926
 20
202.982389580974
 10
-334.421970554926
 20
202.982389580974
  0
LWPOLYLINE
  5
146
330
1F
100
AcDbEntity
  8
Sichtbare_Kanten_TC_020513_DIN_
  6
Continuous
 62
     7
100
AcDbPolyline
 90
        2
 70
     0
 43
0.5
 10
-340.421970554926
 20
202.982389580974
 10
-449.421970554926
 20
202.982389580974
  0
LWPOLYLINE
  5
147
330
1F
100
AcDbEntity
  8
Sichtbare_Kanten_TC_020513_DIN_
  6
Continuous
 62
     7
100
AcDbPolyline
 90
        2
 70
     0
 43
0.5
 10
-454.721970554926
 20
202.282389580974
 10
-455.421970554926
 20
202.982389580974
  0
LWPOLYLINE
  5
148
330
1F
100
AcDbEntity
  8
Sichtbare_Kanten_TC_020513_DIN_
  6
Continuous
 62
     7
100
AcDbPolyline
 90
        2
 70
     0
 43
0.5
 10
-455.421970554926
 20
202.982389580974
 10
-449.421970554926
 20
202.982389580974
  0
LWPOLYLINE
  5
149
330
1F
100
AcDbEntity
  8
Sichtbare_Kanten_TC_020513_DIN_
  6
Continuous
 62
     7
100
AcDbPolyline
 90
        2
 70
     0
 43
0.5
 10
-449.421970554926
 20
202.282389580974
 10
-454.721970554926
 20
202.282389580974
  0
LWPOLYLINE
  5
14A
330
1F
100
AcDbEntity
  8
Sichtbare_Kanten_TC_020513_DIN_
  6
Continuous
 62
     7
100
AcDbPolyline
 90
        2
 70
     0
 43
0.5
 10
-449.421970554926
 20
202.282389580974
 10
-340.421970554926
 20
202.282389580974
  0
LWPOLYLINE
  5
14B
330
1F
100
AcDbEntity
  8
Sichtbare_Kanten_TC_020513_DIN_
  6
Continuous
 62
     7
100
AcDbPolyline
 90
        2
 70
     0
 43
0.5
 10
-335.121970554926
 20
202.282389580974
 10
-334.421970554926
 20
202.982389580974
  0
LWPOLYLINE
  5
14C
330
1F
100
AcDbEntity
  8
Sichtbare_Kanten_TC_020513_DIN_
  6
Continuous
 62
     7
100
AcDbPolyline
 90
        2
 70
     0
 43
0.5
 10
-335.121970554926
 20
202.282389580974
 10
-340.421970554926
 20
202.282389580974
  0
LWPOLYLINE
  5
14D
330
1F
100
AcDbEntity
  8
Sichtbare_Kanten_TC_020513_DIN_
  6
Continuous
 62
     7
100
AcDbPolyline
 90
        2
 70
     0
 43
0.5
 10
-340.421970554926
 20
201.282389580974
 10
-449.421970554926
 20
201.282389580974
  0
LWPOLYLINE
  5
14E
330
1F
100
AcDbEntity
  8
Sichtbare_Kanten_TC_020513_DIN_
  6
Continuous
 62
     7
100
AcDbPolyline
 90
        2
 70
     0
 43
0.5
 10
-449.421970554926
 20
200.582389580974
 10
-340.421970554926
 20
200.582389580974
  0
LWPOLYLINE
  5
14F
330
1F
100
AcDbEntity
  8
Sichtbare_Kanten_TC_020513_DIN_
  6
Continuous
 62
     7
100
AcDbPolyline
 90
        2
 70
     0
 43
0.5
 10
-334.421970554926
 20
200.582389580974
 10
-335.121970554926
 20
201.282389580974
  0
LWPOLYLINE
  5
150
330
1F
100
AcDbEntity
  8
Sichtbare_Kanten_TC_020513_DIN_
  6
Continuous
 62
     7
100
AcDbPolyline
 90
        2
 70
     0
 43
0.5
 10
-340.421970554926
 20
201.282389580974
 10
-335.121970554926
 20
201.282389580974
  0
LWPOLYLINE
  5
151
330
1F
100
AcDbEntity
  8
Sichtbare_Kanten_TC_020513_DIN_
  6
Continuous
 62
     7
100
AcDbPolyline
 90
        2
 70
     0
 43
0.5
 10
-334.421970554926
 20
200.582389580974
 10
-340.421970554926
 20
200.582389580974
  0
LWPOLYLINE
  5
152
330
1F
100
AcDbEntity
  8
Sichtbare_Kanten_TC_020513_DIN_
  6
Continuous
 62
     7
100
AcDbPolyline
 90
        2
 70
     0
 43
0.5
 10
-454.721970554926
 20
201.282389580974
 10
-455.421970554926
 20
200.582389580974
  0
LWPOLYLINE
  5
153
330
1F
100
AcDbEntity
  8
Sichtbare_Kanten_TC_020513_DIN_
  6
Continuous
 62
     7
100
AcDbPolyline
 90
        2
 70
     0
 43
0.5
 10
-449.421970554926
 20
200.582389580974
 10
-455.421970554926
 20
200.582389580974
  0
LWPOLYLINE
  5
154
330
1F
100
AcDbEntity
  8
Sichtbare_Kanten_TC_020513_DIN_
  6
Continuous
 62
     7
100
AcDbPolyline
 90
        2
 70
     0
 43
0.5
 10
-454.721970554926
 20
201.282389580974
 10
-449.421970554926
 20
201.282389580974
  0
LWPOLYLINE
  5
155
330
1F
100
AcDbEntity
  8
Sichtbare_Kanten_TC_020513_DIN_
  6
Continuous
 62
     7
100
AcDbPolyline
 90
        2
 70
     0
 43
0.5
 10
-455.421970554926
 20
199.982389580974
 10
-449.421970554926
 20
199.982389580974
  0
LWPOLYLINE
  5
156
330
1F
100
AcDbEntity
  8
Sichtbare_Kanten_TC_020513_DIN_
  6
Continuous
 62
     7
100
AcDbPolyline
 90
        2
 70
     0
 43
0.5
 10
-334.421970554926
 20
199.982389580974
 10
-335.121970554926
 20
199.282389580974
  0
LWPOLYLINE
  5
157
330
1F
100
AcDbEntity
  8
Sichtbare_Kanten_TC_020513_DIN_
  6
Continuous
 62
     7
100
AcDbPolyline
 90
        2
 70
     0
 43
0.5
 10
-340.421970554926
 20
199.982389580974
 10
-334.421970554926
 20
199.982389580974
  0
LWPOLYLINE
  5
158
330
1F
100
AcDbEntity
  8
Sichtbare_Kanten_TC_020513_DIN_
  6
Continuous
 62
     7
100
AcDbPolyline
 90
        2
 70
     0
 43
0.5
 10
-340.421970554926
 20
199.982389580974
 10
-449.421970554926
 20
199.982389580974
  0
LWPOLYLINE
  5
159
330
1F
100
AcDbEntity
  8
Sichtbare_Kanten_TC_020513_DIN_
  6
Continuous
 62
     7
100
AcDbPolyline
 90
        2
 70
     0
 43
0.5
 10
-455.421970554926
 20
199.982389580974
 10
-454.721970554926
 20
199.282389580974
  0
LWPOLYLINE
  5
15A
330
1F
100
AcDbEntity
  8
Sichtbare_Kanten_TC_020513_DIN_
  6
Continuous
 62
     7
100
AcDbPolyline
 90
        2
 70
     0
 43
0.5
 10
-449.421970554926
 20
197.582389580974
 10
-340.421970554926
 20
197.582389580974
  0
LWPOLYLINE
  5
15B
330
1F
100
AcDbEntity
  8
Sichtbare_Kanten_TC_020513_DIN_
  6
Continuous
 62
     7
100
AcDbPolyline
 90
        2
 70
     0
 43
0.5
 10
-334.421970554926
 20
197.582389580974
 10
-340.421970554926
 20
197.582389580974
  0
LWPOLYLINE
  5
15C
330
1F
100
AcDbEntity
  8
Sichtbare_Kanten_TC_020513_DIN_
  6
Continuous
 62
     7
100
AcDbPolyline
 90
        2
 70
     0
 43
0.5
 10
-454.721970554926
 20
198.282389580974
 10
-455.421970554926
 20
197.582389580974
  0
LWPOLYLINE
  5
15D
330
1F
100
AcDbEntity
  8
Sichtbare_Kanten_TC_020513_DIN_
  6
Continuous
 62
     7
100
AcDbPolyline
 90
        2
 70
     0
 43
0.5
 10
-449.421970554926
 20
197.582389580974
 10
-455.421970554926
 20
197.582389580974
  0
LWPOLYLINE
  5
15E
330
1F
100
AcDbEntity
  8
Sichtbare_Kanten_TC_020513_DIN_
  6
Continuous
 62
     7
100
AcDbPolyline
 90
        2
 70
     0
 43
0.5
 10
-340.421970554926
 20
196.982389580974
 10
-334.421970554926
 20
196.982389580974
  0
LWPOLYLINE
  5
15F
330
1F
100
AcDbEntity
  8
Sichtbare_Kanten_TC_020513_DIN_
  6
Continuous
 62
     7
100
AcDbPolyline
 90
        2
 70
     0
 43
0.5
 10
-340.421970554926
 20
196.982389580974
 10
-449.421970554926
 20
196.982389580974
  0
LWPOLYLINE
  5
160
330
1F
100
AcDbEntity
  8
Sichtbare_Kanten_TC_020513_DIN_
  6
Continuous
 62
     7
100
AcDbPolyline
 90
        2
 70
     0
 43
0.5
 10
-455.421970554926
 20
196.982389580974
 10
-449.421970554926
 20
196.982389580974
  0
LWPOLYLINE
  5
161
330
1F
100
AcDbEntity
  8
Sichtbare_Kanten_TC_020513_DIN_
  6
Continuous
 62
     7
100
AcDbPolyline
 90
        2
 70
     0
 43
0.5
 10
-449.421970554926
 20
194.582389580974
 10
-340.421970554926
 20
194.582389580974
  0
LWPOLYLINE
  5
162
330
1F
100
AcDbEntity
  8
Sichtbare_Kanten_TC_020513_DIN_
  6
Continuous
 62
     7
100
AcDbPolyline
 90
        2
 70
     0
 43
0.5
 10
-334.421970554926
 20
194.582389580974
 10
-340.421970554926
 20
194.582389580974
  0
LWPOLYLINE
  5
163
330
1F
100
AcDbEntity
  8
Sichtbare_Kanten_TC_020513_DIN_
  6
Continuous
 62
     7
100
AcDbPolyline
 90
        2
 70
     0
 43
0.5
 10
-449.421970554926
 20
194.582389580974
 10
-455.421970554926
 20
194.582389580974
  0
LWPOLYLINE
  5
164
330
1F
100
AcDbEntity
  8
Sichtbare_Kanten_TC_020513_DIN_
  6
Continuous
 62
     7
100
AcDbPolyline
 90
        2
 70
     0
 43
0.5
 10
-455.421970554926
 20
199.982389580974
 10
-455.421970554926
 20
199.648989846314
  0
LWPOLYLINE
  5
165
330
1F
100
AcDbEntity
  8
Sichtbare_Kanten_TC_020513_DIN_
  6
Continuous
 62
     7
100
AcDbPolyline
 90
        2
 70
     0
 43
0.5
 10
-455.421970554926
 20
202.982389580974
 10
-455.421970554926
 20
200.582389580974
  0
LWPOLYLINE
  5
166
330
1F
100
AcDbEntity
  8
Sichtbare_Kanten_TC_020513_DIN_
  6
Continuous
 62
     7
100
AcDbPolyline
 90
        2
 70
     0
 43
0.5
 10
-455.421970554926
 20
205.982389580973
 10
-455.421970554926
 20
203.582389580974
  0
LWPOLYLINE
  5
167
330
1F
100
AcDbEntity
  8
Sichtbare_Kanten_TC_020513_DIN_
  6
Continuous
 62
     7
100
AcDbPolyline
 90
        2
 70
     0
 43
0.5
 10
-455.421970554926
 20
208.982389580974
 10
-455.421970554926
 20
206.582389580974
  0
LWPOLYLINE
  5
168
330
1F
100
AcDbEntity
  8
Sichtbare_Kanten_TC_020513_DIN_
  6
Continuous
 62
     7
100
AcDbPolyline
 90
        2
 70
     0
 43
0.5
 10
-340.421970554926
 20
173.782389580974
 10
-449.421970554926
 20
173.782389580974
  0
LWPOLYLINE
  5
169
330
1F
100
AcDbEntity
  8
Sichtbare_Kanten_TC_020513_DIN_
  6
Continuous
 62
     7
100
AcDbPolyline
 90
        2
 70
     0
 43
0.5
 10
-334.421970554926
 20
206.582389580974
 10
-334.421970554926
 20
208.982389580974
  0
LWPOLYLINE
  5
16A
330
1F
100
AcDbEntity
  8
Sichtbare_Kanten_TC_020513_DIN_
  6
Continuous
 62
     7
100
AcDbPolyline
 90
        2
 70
     0
 43
0.5
 10
-334.421970554926
 20
203.582389580974
 10
-334.421970554926
 20
205.982389580973
  0
LWPOLYLINE
  5
16B
330
1F
100
AcDbEntity
  8
Sichtbare_Kanten_TC_020513_DIN_
  6
Continuous
 62
     7
100
AcDbPolyline
 90
        2
 70
     0
 43
0.5
 10
-334.421970554926
 20
200.582389580974
 10
-334.421970554926
 20
202.982389580974
  0
LWPOLYLINE
  5
16C
330
1F
100
AcDbEntity
  8
Sichtbare_Kanten_TC_020513_DIN_
  6
Continuous
 62
     7
100
AcDbPolyline
 90
        2
 70
     0
 43
0.5
 10
-334.421970554926
 20
199.648989846314
 10
-334.421970554926
 20
199.982389580974
  0
LWPOLYLINE
  5
16D
330
1F
100
AcDbEntity
  8
Sichtbare_Kanten_TC_020513_DIN_
  6
Continuous
 62
     7
100
AcDbPolyline
 90
        2
 70
     0
 43
0.5
 10
-335.421970554926
 20
195.282389580974
 10
-335.421970554926
 20
196.282389580974
  0
LWPOLYLINE
  5
16E
330
1F
100
AcDbEntity
  8
Sichtbare_Kanten_TC_020513_DIN_
  6
Continuous
 62
     7
100
AcDbPolyline
 90
        2
 70
     0
 43
0.5
 10
-454.421970554926
 20
195.282389580974
 10
-454.421970554926
 20
196.282389580974
  0
LWPOLYLINE
  5
16F
330
1F
100
AcDbEntity
  8
Sichtbare_Kanten_TC_020513_DIN_
  6
Continuous
 62
     7
100
AcDbPolyline
 90
        2
 70
     0
 43
0.5
 10
-335.421970554926
 20
207.282389580974
 10
-335.421970554926
 20
208.282389580974
  0
LWPOLYLINE
  5
170
330
1F
100
AcDbEntity
  8
Sichtbare_Kanten_TC_020513_DIN_
  6
Continuous
 62
     7
100
AcDbPolyline
 90
        2
 70
     0
 43
0.5
 10
-454.421970554926
 20
207.282389580974
 10
-454.421970554926
 20
208.282389580974
  0
LWPOLYLINE
  5
171
330
1F
100
AcDbEntity
  8
Sichtbare_Kanten_TC_020513_DIN_
  6
Continuous
 62
     7
100
AcDbPolyline
 90
        2
 70
     0
 43
0.5
 10
-335.421970554926
 20
204.282389580974
 10
-335.421970554926
 20
205.282389580974
  0
LWPOLYLINE
  5
172
330
1F
100
AcDbEntity
  8
Sichtbare_Kanten_TC_020513_DIN_
  6
Continuous
 62
     7
100
AcDbPolyline
 90
        2
 70
     0
 43
0.5
 10
-454.421970554926
 20
204.282389580974
 10
-454.421970554926
 20
205.282389580974
  0
LWPOLYLINE
  5
173
330
1F
100
AcDbEntity
  8
Sichtbare_Kanten_TC_020513_DIN_
  6
Continuous
 62
     7
100
AcDbPolyline
 90
        2
 70
     0
 43
0.5
 10
-335.421970554926
 20
201.282389580974
 10
-335.421970554926
 20
202.282389580974
  0
LWPOLYLINE
  5
174
330
1F
100
AcDbEntity
  8
Sichtbare_Kanten_TC_020513_DIN_
  6
Continuous
 62
     7
100
AcDbPolyline
 90
        2
 70
     0
 43
0.5
 10
-454.421970554926
 20
201.282389580974
 10
-454.421970554926
 20
202.282389580974
  0
LWPOLYLINE
  5
175
330
1F
100
AcDbEntity
  8
Sichtbare_Kanten_TC_020513_DIN_
  6
Continuous
 62
     7
100
AcDbPolyline
 90
        2
 70
     0
 43
0.5
 10
-335.421970554926
 20
198.282389580974
 10
-335.421970554926
 20
199.282389580974
  0
LWPOLYLINE
  5
176
330
1F
100
AcDbEntity
  8
Sichtbare_Kanten_TC_020513_DIN_
  6
Continuous
 62
     7
100
AcDbPolyline
 90
        2
 70
     0
 43
0.5
 10
-454.421970554926
 20
198.282389580974
 10
-454.421970554926
 20
199.282389580974
  0
LWPOLYLINE
  5
177
330
1F
100
AcDbEntity
  8
Sichtbare_Kanten_TC_020513_DIN_
  6
Continuous
 62
     7
100
AcDbPolyline
 90
        2
 70
     0
 43
0.5
 10
-352.972420954684
 20
280.782389580974
 10
-349.9225478674809
 20
280.782389580974
  0
LWPOLYLINE
  5
178
330
1F
100
AcDbEntity
  8
Sichtbare_Kanten_TC_020513_DIN_
  6
Continuous
 62
     7
100
AcDbPolyline
 90
        2
 70
     0
 43
0.5
 10
-352.972420954684
 20
280.782389580974
 10
-436.8715201551669
 20
280.782389580974
  0
LWPOLYLINE
  5
179
330
1F
100
AcDbEntity
  8
Sichtbare_Kanten_TC_020513_DIN_
  6
Continuous
 62
     7
100
AcDbPolyline
 90
        2
 70
     0
 43
0.5
 10
-439.92139324237
 20
280.782389580974
 10
-436.8715201551669
 20
280.782389580974
  0
LWPOLYLINE
  5
17A
330
1F
100
AcDbEntity
  8
Sichtbare_Kanten_TC_020513_DIN_
  6
Continuous
 62
     7
100
AcDbPolyline
 90
        2
 70
     0
 43
0.5
 10
-178.671968710671
 20
221.782389580974
 10
-178.671968710668
 20
263.782389580974
  0
LWPOLYLINE
  5
17B
330
1F
100
AcDbEntity
  8
Sichtbare_Kanten_TC_020513_DIN_
  6
Continuous
 62
     7
100
AcDbPolyline
 90
        2
 70
     0
 43
0.5
 10
-177.6719687106699
 20
173.782389580974
 10
-183.671968710672
 20
173.782389580974
  0
LWPOLYLINE
  5
17C
330
1F
100
AcDbEntity
  8
Sichtbare_Kanten_TC_020513_DIN_
  6
Continuous
 62
     7
100
AcDbPolyline
 90
        2
 70
     0
 43
0.5
 10
-250.671968710672
 20
173.782389580974
 10
-256.6719687106699
 20
173.782389580974
  0
LWPOLYLINE
  5
17D
330
1F
100
AcDbEntity
  8
Sichtbare_Kanten_TC_020513_DIN_
  6
Continuous
 62
     7
100
AcDbPolyline
 90
        2
 70
     0
 43
0.5
 10
-256.6719687106699
 20
220.050338773405
 10
-255.6719687106699
 20
221.782389580974
  0
LWPOLYLINE
  5
17E
330
1F
100
AcDbEntity
  8
Sichtbare_Kanten_TC_020513_DIN_
  6
Continuous
 62
     7
100
AcDbPolyline
 90
        2
 70
     0
 43
0.5
 10
-255.671968710668
 20
263.782389580974
 10
-255.6719687106699
 20
221.782389580974
  0
LWPOLYLINE
  5
17F
330
1F
100
AcDbEntity
  8
Sichtbare_Kanten_TC_020513_DIN_
  6
Continuous
 62
     7
100
AcDbPolyline
 90
        2
 70
     0
 43
0.5
 10
-255.671968710668
 20
263.782389580974
 10
-256.671968710667
 20
265.514440388542
  0
LWPOLYLINE
  5
180
330
1F
100
AcDbEntity
  8
Sichtbare_Kanten_TC_020513_DIN_
  6
Continuous
 62
     7
100
AcDbPolyline
 90
        2
 70
     0
 43
0.5
 10
-256.671968710667
 20
277.782389580974
 10
-256.671968710667
 20
265.514440388542
  0
LWPOLYLINE
  5
181
330
1F
100
AcDbEntity
  8
Sichtbare_Kanten_TC_020513_DIN_
  6
Continuous
 62
     7
100
AcDbPolyline
 90
        2
 70
     0
 43
0.5
 10
-256.6719687106699
 20
220.050338773405
 10
-256.6719687106699
 20
208.982389580974
  0
LWPOLYLINE
  5
182
330
1F
100
AcDbEntity
  8
Sichtbare_Kanten_TC_020513_DIN_
  6
Continuous
 62
     7
100
AcDbPolyline
 90
        2
 70
     0
 43
0.5
 10
-177.671968710667
 20
265.514440388542
 10
-178.671968710668
 20
263.782389580974
  0
LWPOLYLINE
  5
183
330
1F
100
AcDbEntity
  8
Sichtbare_Kanten_TC_020513_DIN_
  6
Continuous
 62
     7
100
AcDbPolyline
 90
        2
 70
     0
 43
0.5
 10
-178.671968710671
 20
221.782389580974
 10
-177.6719687106699
 20
220.050338773405
  0
LWPOLYLINE
  5
184
330
1F
100
AcDbEntity
  8
Sichtbare_Kanten_TC_020513_DIN_
  6
Continuous
 62
     7
100
AcDbPolyline
 90
        2
 70
     0
 43
0.5
 10
-177.6719687106699
 20
208.982389580974
 10
-177.6719687106699
 20
220.050338773405
  0
LWPOLYLINE
  5
185
330
1F
100
AcDbEntity
  8
Sichtbare_Kanten_TC_020513_DIN_
  6
Continuous
 62
     7
100
AcDbPolyline
 90
        2
 70
     0
 43
0.5
 10
-177.671968710667
 20
265.514440388542
 10
-177.671968710667
 20
277.782389580974
  0
LWPOLYLINE
  5
186
330
1F
100
AcDbEntity
  8
Sichtbare_Kanten_TC_020513_DIN_
  6
Continuous
 62
     7
100
AcDbPolyline
 90
        2
 70
     0
 43
0.5
 10
-256.6719687106699
 20
200.582389580974
 10
-256.6719687106699
 20
199.982389580974
  0
LWPOLYLINE
  5
187
330
1F
100
AcDbEntity
  8
Sichtbare_Kanten_TC_020513_DIN_
  6
Continuous
 62
     7
100
AcDbPolyline
 90
        2
 70
     0
 43
0.5
 10
-256.6719687106699
 20
197.582389580974
 10
-256.6719687106699
 20
196.982389580974
  0
LWPOLYLINE
  5
188
330
1F
100
AcDbEntity
  8
Sichtbare_Kanten_TC_020513_DIN_
  6
Continuous
 62
     7
100
AcDbPolyline
 90
        2
 70
     0
 43
0.5
 10
-256.6719687106699
 20
203.582389580974
 10
-256.6719687106699
 20
202.982389580974
  0
LWPOLYLINE
  5
189
330
1F
100
AcDbEntity
  8
Sichtbare_Kanten_TC_020513_DIN_
  6
Continuous
 62
     7
100
AcDbPolyline
 90
        2
 70
     0
 43
0.5
 10
-256.6719687106699
 20
206.582389580974
 10
-256.6719687106699
 20
205.982389580973
  0
LWPOLYLINE
  5
18A
330
1F
100
AcDbEntity
  8
Sichtbare_Kanten_TC_020513_DIN_
  6
Continuous
 62
     7
100
AcDbPolyline
 90
        2
 70
     0
 43
0.5
 10
-256.6719687106699
 20
194.582389580974
 10
-256.6719687106699
 20
191.782389580974
  0
LWPOLYLINE
  5
18B
330
1F
100
AcDbEntity
  8
Sichtbare_Kanten_TC_020513_DIN_
  6
Continuous
 62
     7
100
AcDbPolyline
 90
        2
 70
     0
 43
0.5
 10
-177.6719687106699
 20
205.982389580973
 10
-177.6719687106699
 20
206.582389580974
  0
LWPOLYLINE
  5
18C
330
1F
100
AcDbEntity
  8
Sichtbare_Kanten_TC_020513_DIN_
  6
Continuous
 62
     7
100
AcDbPolyline
 90
        2
 70
     0
 43
0.5
 10
-177.6719687106699
 20
202.982389580974
 10
-177.6719687106699
 20
203.582389580974
  0
LWPOLYLINE
  5
18D
330
1F
100
AcDbEntity
  8
Sichtbare_Kanten_TC_020513_DIN_
  6
Continuous
 62
     7
100
AcDbPolyline
 90
        2
 70
     0
 43
0.5
 10
-177.6719687106699
 20
199.982389580974
 10
-177.6719687106699
 20
200.582389580974
  0
LWPOLYLINE
  5
18E
330
1F
100
AcDbEntity
  8
Sichtbare_Kanten_TC_020513_DIN_
  6
Continuous
 62
     7
100
AcDbPolyline
 90
        2
 70
     0
 43
0.5
 10
-177.6719687106699
 20
196.982389580974
 10
-177.6719687106699
 20
197.582389580974
  0
LWPOLYLINE
  5
18F
330
1F
100
AcDbEntity
  8
Sichtbare_Kanten_TC_020513_DIN_
  6
Continuous
 62
     7
100
AcDbPolyline
 90
        2
 70
     0
 43
0.5
 10
-177.6719687106699
 20
191.782389580974
 10
-177.6719687106699
 20
194.582389580974
  0
LWPOLYLINE
  5
190
330
1F
100
AcDbEntity
  8
Sichtbare_Kanten_TC_020513_DIN_
  6
Continuous
 62
     7
100
AcDbPolyline
 90
        2
 70
     0
 43
0.5
 10
-177.6719687106699
 20
173.782389580974
 10
-177.6719687106699
 20
182.782389580974
  0
LWPOLYLINE
  5
191
330
1F
100
AcDbEntity
  8
Sichtbare_Kanten_TC_020513_DIN_
  6
Continuous
 62
     7
100
AcDbPolyline
 90
        2
 70
     0
 43
0.5
 10
-256.6719687106699
 20
182.782389580974
 10
-256.6719687106699
 20
173.782389580974
  0
LWPOLYLINE
  5
192
330
1F
100
AcDbEntity
  8
Sichtbare_Kanten_TC_020513_DIN_
  6
Continuous
 62
     7
100
AcDbPolyline
 90
        2
 70
     0
 43
0.5
 10
-214.957809728128
 20
190.882389580974
 10
-219.386127693225
 20
190.882389580974
  0
LWPOLYLINE
  5
193
330
1F
100
AcDbEntity
  8
Sichtbare_Kanten_TC_020513_DIN_
  6
Continuous
 62
     7
100
AcDbPolyline
 90
        2
 70
     0
 43
0.5
 10
-219.386127693225
 20
191.682389580974
 10
-214.957809728128
 20
191.682389580974
  0
LWPOLYLINE
  5
194
330
1F
100
AcDbEntity
  8
Sichtbare_Kanten_TC_020513_DIN_
  6
Continuous
 62
     7
100
AcDbPolyline
 90
        2
 70
     0
 43
0.5
 10
-225.671968710674
 20
191.282389580974
 10
-225.671968710674
 20
186.782389580974
  0
LWPOLYLINE
  5
195
330
1F
100
AcDbEntity
  8
Sichtbare_Kanten_TC_020513_DIN_
  6
Continuous
 62
     7
100
AcDbPolyline
 90
        2
 70
     0
 43
0.5
 10
-208.671968710674
 20
186.782389580974
 10
-208.671968710674
 20
191.282389580974
  0
LWPOLYLINE
  5
196
330
1F
100
AcDbEntity
  8
Sichtbare_Kanten_TC_020513_DIN_
  6
Continuous
 62
     7
100
AcDbPolyline
 90
        2
 70
     0
 43
0.5
 10
-223.171968710672
 20
173.782389580974
 10
-223.171968710672
 20
182.782389580974
  0
LWPOLYLINE
  5
197
330
1F
100
AcDbEntity
  8
Sichtbare_Kanten_TC_020513_DIN_
  6
Continuous
 62
     7
100
AcDbPolyline
 90
        2
 70
     0
 43
0.5
 10
-211.171968710672
 20
182.782389580974
 10
-211.171968710672
 20
173.782389580974
  0
LWPOLYLINE
  5
198
330
1F
100
AcDbEntity
  8
Sichtbare_Kanten_TC_020513_DIN_
  6
Continuous
 62
     7
100
AcDbPolyline
 90
        2
 70
     0
 43
0.5
 10
-250.671968710674
 20
182.782389580974
 10
-183.671968710674
 20
182.782389580974
  0
LWPOLYLINE
  5
199
330
1F
100
AcDbEntity
  8
Sichtbare_Kanten_TC_020513_DIN_
  6
Continuous
 62
     7
100
AcDbPolyline
 90
        2
 70
     0
 43
0.5
 10
-250.671968710674
 20
182.782389580974
 10
-262.1719687106699
 20
182.782389580974
  0
LWPOLYLINE
  5
19A
330
1F
100
AcDbEntity
  8
Sichtbare_Kanten_TC_020513_DIN_
  6
Continuous
 62
     7
100
AcDbPolyline
 90
        2
 70
     0
 43
0.5
 10
-172.1719687106699
 20
182.782389580974
 10
-183.671968710674
 20
182.782389580974
  0
LWPOLYLINE
  5
19B
330
1F
100
AcDbEntity
  8
Sichtbare_Kanten_TC_020513_DIN_
  6
Continuous
 62
     7
100
AcDbPolyline
 90
        2
 70
     0
 43
0.5
 10
-208.686687336433
 20
191.782389580974
 10
-183.671968710672
 20
191.782389580974
  0
LWPOLYLINE
  5
19C
330
1F
100
AcDbEntity
  8
Sichtbare_Kanten_TC_020513_DIN_
  6
Continuous
 62
     7
100
AcDbPolyline
 90
        2
 70
     0
 43
0.5
 10
-250.671968710672
 20
191.782389580974
 10
-225.657250084911
 20
191.782389580974
  0
LWPOLYLINE
  5
19D
330
1F
100
AcDbEntity
  8
Sichtbare_Kanten_TC_020513_DIN_
  6
Continuous
 62
     7
100
AcDbPolyline
 90
        2
 70
     0
 43
0.5
 10
-250.671968710674
 20
186.782389580974
 10
-225.671968710674
 20
186.782389580974
  0
LWPOLYLINE
  5
19E
330
1F
100
AcDbEntity
  8
Sichtbare_Kanten_TC_020513_DIN_
  6
Continuous
 62
     7
100
AcDbPolyline
 90
        2
 70
     0
 43
0.5
 10
-208.671968710674
 20
186.782389580974
 10
-183.671968710674
 20
186.782389580974
  0
LWPOLYLINE
  5
19F
330
1F
100
AcDbEntity
  8
Sichtbare_Kanten_TC_020513_DIN_
  6
Continuous
 62
     7
100
AcDbPolyline
 90
        2
 70
     0
 43
0.5
 10
-250.671968710672
 20
191.782389580974
 10
-256.6719687106699
 20
191.782389580974
  0
LWPOLYLINE
  5
1A0
330
1F
100
AcDbEntity
  8
Sichtbare_Kanten_TC_020513_DIN_
  6
Continuous
 62
     7
100
AcDbPolyline
 90
        2
 70
     0
 43
0.5
 10
-262.1719687106699
 20
186.782389580974
 10
-262.1719687106699
 20
182.782389580974
  0
LWPOLYLINE
  5
1A1
330
1F
100
AcDbEntity
  8
Sichtbare_Kanten_TC_020513_DIN_
  6
Continuous
 62
     7
100
AcDbPolyline
 90
        2
 70
     0
 43
0.5
 10
-256.6719687106699
 20
191.782389580974
 10
-262.1719687106699
 20
186.782389580974
  0
LWPOLYLINE
  5
1A2
330
1F
100
AcDbEntity
  8
Sichtbare_Kanten_TC_020513_DIN_
  6
Continuous
 62
     7
100
AcDbPolyline
 90
        2
 70
     0
 43
0.5
 10
-172.1719687106699
 20
182.782389580974
 10
-172.1719687106699
 20
186.782389580974
  0
LWPOLYLINE
  5
1A3
330
1F
100
AcDbEntity
  8
Sichtbare_Kanten_TC_020513_DIN_
  6
Continuous
 62
     7
100
AcDbPolyline
 90
        2
 70
     0
 43
0.5
 10
-172.1719687106699
 20
186.782389580974
 10
-177.6719687106699
 20
191.782389580974
  0
LWPOLYLINE
  5
1A4
330
1F
100
AcDbEntity
  8
Sichtbare_Kanten_TC_020513_DIN_
  6
Continuous
 62
     7
100
AcDbPolyline
 90
        2
 70
     0
 43
0.5
 10
-172.1719687106699
 20
186.782389580974
 10
-183.671968710674
 20
186.782389580974
  0
LWPOLYLINE
  5
1A5
330
1F
100
AcDbEntity
  8
Sichtbare_Kanten_TC_020513_DIN_
  6
Continuous
 62
     7
100
AcDbPolyline
 90
        2
 70
     0
 43
0.5
 10
-177.6719687106699
 20
191.782389580974
 10
-183.671968710672
 20
191.782389580974
  0
LWPOLYLINE
  5
1A6
330
1F
100
AcDbEntity
  8
Sichtbare_Kanten_TC_020513_DIN_
  6
Continuous
 62
     7
100
AcDbPolyline
 90
        2
 70
     0
 43
0.5
 10
-250.671968710674
 20
186.782389580974
 10
-262.1719687106699
 20
186.782389580974
  0
LWPOLYLINE
  5
1A7
330
1F
100
AcDbEntity
  8
Sichtbare_Kanten_TC_020513_DIN_
  6
Continuous
 62
     7
100
AcDbPolyline
 90
        2
 70
     0
 43
0.5
 10
-178.37196871067
 20
196.282389580974
 10
-183.671968710672
 20
196.282389580974
  0
LWPOLYLINE
  5
1A8
330
1F
100
AcDbEntity
  8
Sichtbare_Kanten_TC_020513_DIN_
  6
Continuous
 62
     7
100
AcDbPolyline
 90
        2
 70
     0
 43
0.5
 10
-210.298105168238
 20
196.282389580974
 10
-183.671968710672
 20
196.282389580974
  0
LWPOLYLINE
  5
1A9
330
1F
100
AcDbEntity
  8
Sichtbare_Kanten_TC_020513_DIN_
  6
Continuous
 62
     7
100
AcDbPolyline
 90
        2
 70
     0
 43
0.5
 10
-250.671968710672
 20
196.282389580974
 10
-224.045832253105
 20
196.282389580974
  0
LWPOLYLINE
  5
1AA
330
1F
100
AcDbEntity
  8
Sichtbare_Kanten_TC_020513_DIN_
  6
Continuous
 62
     7
100
AcDbPolyline
 90
        2
 70
     0
 43
0.5
 10
-250.671968710672
 20
196.282389580974
 10
-255.97196871067
 20
196.282389580974
  0
LWPOLYLINE
  5
1AB
330
1F
100
AcDbEntity
  8
Sichtbare_Kanten_TC_020513_DIN_
  6
Continuous
 62
     7
100
AcDbPolyline
 90
        2
 70
     0
 43
0.5
 10
-183.671968710672
 20
195.282389580974
 10
-209.671968710672
 20
195.282389580974
  0
LWPOLYLINE
  5
1AC
330
1F
100
AcDbEntity
  8
Sichtbare_Kanten_TC_020513_DIN_
  6
Continuous
 62
     7
100
AcDbPolyline
 90
        2
 70
     0
 43
0.5
 10
-183.671968710672
 20
195.282389580974
 10
-178.37196871067
 20
195.282389580974
  0
LWPOLYLINE
  5
1AD
330
1F
100
AcDbEntity
  8
Sichtbare_Kanten_TC_020513_DIN_
  6
Continuous
 62
     7
100
AcDbPolyline
 90
        2
 70
     0
 43
0.5
 10
-209.338706299646
 20
194.582389580974
 10
-183.671968710672
 20
194.582389580974
  0
LWPOLYLINE
  5
1AE
330
1F
100
AcDbEntity
  8
Sichtbare_Kanten_TC_020513_DIN_
  6
Continuous
 62
     7
100
AcDbPolyline
 90
        2
 70
     0
 43
0.5
 10
-183.671968710672
 20
196.982389580974
 10
-210.866415602498
 20
196.982389580974
  0
LWPOLYLINE
  5
1AF
330
1F
100
AcDbEntity
  8
Sichtbare_Kanten_TC_020513_DIN_
  6
Continuous
 62
     7
100
AcDbPolyline
 90
        2
 70
     0
 43
0.5
 10
-223.477521818846
 20
196.982389580974
 10
-250.671968710672
 20
196.982389580974
  0
LWPOLYLINE
  5
1B0
330
1F
100
AcDbEntity
  8
Sichtbare_Kanten_TC_020513_DIN_
  6
Continuous
 62
     7
100
AcDbPolyline
 90
        2
 70
     0
 43
0.5
 10
-221.993794091168
 20
198.282389580974
 10
-250.671968710672
 20
198.282389580974
  0
LWPOLYLINE
  5
1B1
330
1F
100
AcDbEntity
  8
Sichtbare_Kanten_TC_020513_DIN_
  6
Continuous
 62
     7
100
AcDbPolyline
 90
        2
 70
     0
 43
0.5
 10
-250.671968710672
 20
197.582389580974
 10
-222.878105757747
 20
197.582389580974
  0
LWPOLYLINE
  5
1B2
330
1F
100
AcDbEntity
  8
Sichtbare_Kanten_TC_020513_DIN_
  6
Continuous
 62
     7
100
AcDbPolyline
 90
        2
 70
     0
 43
0.5
 10
-255.97196871067
 20
198.282389580974
 10
-250.671968710672
 20
198.282389580974
  0
LWPOLYLINE
  5
1B3
330
1F
100
AcDbEntity
  8
Sichtbare_Kanten_TC_020513_DIN_
  6
Continuous
 62
     7
100
AcDbPolyline
 90
        2
 70
     0
 43
0.5
 10
-183.671968710672
 20
199.982389580974
 10
-215.671968710672
 20
199.982389580974
  0
LWPOLYLINE
  5
1B4
330
1F
100
AcDbEntity
  8
Sichtbare_Kanten_TC_020513_DIN_
  6
Continuous
 62
     7
100
AcDbPolyline
 90
        2
 70
     0
 43
0.5
 10
-215.671968710672
 20
200.582389580974
 10
-183.671968710672
 20
200.582389580974
  0
LWPOLYLINE
  5
1B5
330
1F
100
AcDbEntity
  8
Sichtbare_Kanten_TC_020513_DIN_
  6
Continuous
 62
     7
100
AcDbPolyline
 90
        2
 70
     0
 43
0.5
 10
-183.671968710672
 20
202.982389580974
 10
-215.671968710672
 20
202.982389580974
  0
LWPOLYLINE
  5
1B6
330
1F
100
AcDbEntity
  8
Sichtbare_Kanten_TC_020513_DIN_
  6
Continuous
 62
     7
100
AcDbPolyline
 90
        2
 70
     0
 43
0.5
 10
-215.671968710672
 20
203.582389580974
 10
-183.671968710672
 20
203.582389580974
  0
LWPOLYLINE
  5
1B7
330
1F
100
AcDbEntity
  8
Sichtbare_Kanten_TC_020513_DIN_
  6
Continuous
 62
     7
100
AcDbPolyline
 90
        2
 70
     0
 43
0.5
 10
-183.671968710672
 20
205.982389580973
 10
-215.671968710672
 20
205.982389580973
  0
LWPOLYLINE
  5
1B8
330
1F
100
AcDbEntity
  8
Sichtbare_Kanten_TC_020513_DIN_
  6
Continuous
 62
     7
100
AcDbPolyline
 90
        2
 70
     0
 43
0.5
 10
-215.671968710672
 20
206.582389580974
 10
-183.671968710672
 20
206.582389580974
  0
LWPOLYLINE
  5
1B9
330
1F
100
AcDbEntity
  8
Sichtbare_Kanten_TC_020513_DIN_
  6
Continuous
 62
     7
100
AcDbPolyline
 90
        2
 70
     0
 43
0.5
 10
-183.671968710672
 20
208.982389580974
 10
-215.671968710672
 20
208.982389580974
  0
LWPOLYLINE
  5
1BA
330
1F
100
AcDbEntity
  8
Sichtbare_Kanten_TC_020513_DIN_
  6
Continuous
 62
     7
100
AcDbPolyline
 90
        2
 70
     0
 43
0.5
 10
-218.671968710672
 20
208.982389580974
 10
-250.671968710672
 20
208.982389580974
  0
LWPOLYLINE
  5
1BB
330
1F
100
AcDbEntity
  8
Sichtbare_Kanten_TC_020513_DIN_
  6
Continuous
 62
     7
100
AcDbPolyline
 90
        2
 70
     0
 43
0.5
 10
-250.671968710672
 20
206.582389580974
 10
-218.671968710672
 20
206.582389580974
  0
LWPOLYLINE
  5
1BC
330
1F
100
AcDbEntity
  8
Sichtbare_Kanten_TC_020513_DIN_
  6
Continuous
 62
     7
100
AcDbPolyline
 90
        2
 70
     0
 43
0.5
 10
-218.671968710672
 20
205.982389580973
 10
-250.671968710672
 20
205.982389580973
  0
LWPOLYLINE
  5
1BD
330
1F
100
AcDbEntity
  8
Sichtbare_Kanten_TC_020513_DIN_
  6
Continuous
 62
     7
100
AcDbPolyline
 90
        2
 70
     0
 43
0.5
 10
-250.671968710672
 20
203.582389580974
 10
-218.671968710672
 20
203.582389580974
  0
LWPOLYLINE
  5
1BE
330
1F
100
AcDbEntity
  8
Sichtbare_Kanten_TC_020513_DIN_
  6
Continuous
 62
     7
100
AcDbPolyline
 90
        2
 70
     0
 43
0.5
 10
-218.671968710672
 20
202.982389580974
 10
-250.671968710672
 20
202.982389580974
  0
LWPOLYLINE
  5
1BF
330
1F
100
AcDbEntity
  8
Sichtbare_Kanten_TC_020513_DIN_
  6
Continuous
 62
     7
100
AcDbPolyline
 90
        2
 70
     0
 43
0.5
 10
-250.671968710672
 20
200.582389580974
 10
-218.671968710672
 20
200.582389580974
  0
LWPOLYLINE
  5
1C0
330
1F
100
AcDbEntity
  8
Sichtbare_Kanten_TC_020513_DIN_
  6
Continuous
 62
     7
100
AcDbPolyline
 90
        2
 70
     0
 43
0.5
 10
-218.671968710672
 20
199.982389580974
 10
-250.671968710672
 20
199.982389580974
  0
LWPOLYLINE
  5
1C1
330
1F
100
AcDbEntity
  8
Sichtbare_Kanten_TC_020513_DIN_
  6
Continuous
 62
     7
100
AcDbPolyline
 90
        2
 70
     0
 43
0.5
 10
-250.671968710672
 20
199.282389580974
 10
-220.044250033941
 20
199.282389580974
  0
LWPOLYLINE
  5
1C2
330
1F
100
AcDbEntity
  8
Sichtbare_Kanten_TC_020513_DIN_
  6
Continuous
 62
     7
100
AcDbPolyline
 90
        2
 70
     0
 43
0.5
 10
-250.671968710672
 20
199.282389580974
 10
-255.97196871067
 20
199.282389580974
  0
LWPOLYLINE
  5
1C3
330
1F
100
AcDbEntity
  8
Sichtbare_Kanten_TC_020513_DIN_
  6
Continuous
 62
     7
100
AcDbPolyline
 90
        2
 70
     0
 43
0.5
 10
-250.671968710672
 20
194.582389580974
 10
-225.005231121698
 20
194.582389580974
  0
LWPOLYLINE
  5
1C4
330
1F
100
AcDbEntity
  8
Sichtbare_Kanten_TC_020513_DIN_
  6
Continuous
 62
     7
100
AcDbPolyline
 90
        2
 70
     0
 43
0.5
 10
-211.465831663597
 20
197.582389580974
 10
-183.671968710672
 20
197.582389580974
  0
LWPOLYLINE
  5
1C5
330
1F
100
AcDbEntity
  8
Sichtbare_Kanten_TC_020513_DIN_
  6
Continuous
 62
     7
100
AcDbPolyline
 90
        2
 70
     0
 43
0.5
 10
-224.671968710672
 20
195.282389580974
 10
-250.671968710672
 20
195.282389580974
  0
LWPOLYLINE
  5
1C6
330
1F
100
AcDbEntity
  8
Sichtbare_Kanten_TC_020513_DIN_
  6
Continuous
 62
     7
100
AcDbPolyline
 90
        2
 70
     0
 43
0.5
 10
-255.97196871067
 20
195.282389580974
 10
-250.671968710672
 20
195.282389580974
  0
LWPOLYLINE
  5
1C7
330
1F
100
AcDbEntity
  8
Sichtbare_Kanten_TC_020513_DIN_
  6
Continuous
 62
     7
100
AcDbPolyline
 90
        2
 70
     0
 43
0.5
 10
-183.671968710672
 20
198.282389580974
 10
-212.3501433301749
 20
198.282389580974
  0
LWPOLYLINE
  5
1C8
330
1F
100
AcDbEntity
  8
Sichtbare_Kanten_TC_020513_DIN_
  6
Continuous
 62
     7
100
AcDbPolyline
 90
        2
 70
     0
 43
0.5
 10
-183.671968710672
 20
198.282389580974
 10
-178.37196871067
 20
198.282389580974
  0
LWPOLYLINE
  5
1C9
330
1F
100
AcDbEntity
  8
Sichtbare_Kanten_TC_020513_DIN_
  6
Continuous
 62
     7
100
AcDbPolyline
 90
        2
 70
     0
 43
0.5
 10
-178.37196871067
 20
199.282389580974
 10
-183.671968710672
 20
199.282389580974
  0
LWPOLYLINE
  5
1CA
330
1F
100
AcDbEntity
  8
Sichtbare_Kanten_TC_020513_DIN_
  6
Continuous
 62
     7
100
AcDbPolyline
 90
        2
 70
     0
 43
0.5
 10
-214.299687387403
 20
199.282389580974
 10
-183.671968710672
 20
199.282389580974
  0
LWPOLYLINE
  5
1CB
330
1F
100
AcDbEntity
  8
Sichtbare_Kanten_TC_020513_DIN_
  6
Continuous
 62
     7
100
AcDbPolyline
 90
        2
 70
     0
 43
0.5
 10
-255.97196871067
 20
208.282389580974
 10
-256.6719687106699
 20
208.982389580974
  0
LWPOLYLINE
  5
1CC
330
1F
100
AcDbEntity
  8
Sichtbare_Kanten_TC_020513_DIN_
  6
Continuous
 62
     7
100
AcDbPolyline
 90
        2
 70
     0
 43
0.5
 10
-256.6719687106699
 20
208.982389580974
 10
-250.671968710672
 20
208.982389580974
  0
LWPOLYLINE
  5
1CD
330
1F
100
AcDbEntity
  8
Sichtbare_Kanten_TC_020513_DIN_
  6
Continuous
 62
     7
100
AcDbPolyline
 90
        2
 70
     0
 43
0.5
 10
-250.671968710672
 20
208.282389580974
 10
-255.97196871067
 20
208.282389580974
  0
LWPOLYLINE
  5
1CE
330
1F
100
AcDbEntity
  8
Sichtbare_Kanten_TC_020513_DIN_
  6
Continuous
 62
     7
100
AcDbPolyline
 90
        2
 70
     0
 43
0.5
 10
-250.671968710672
 20
208.282389580974
 10
-218.671968710672
 20
208.282389580974
  0
LWPOLYLINE
  5
1CF
330
1F
100
AcDbEntity
  8
Sichtbare_Kanten_TC_020513_DIN_
  6
Continuous
 62
     7
100
AcDbPolyline
 90
        2
 70
     0
 43
0.5
 10
-218.671968710672
 20
207.282389580974
 10
-250.671968710672
 20
207.282389580974
  0
LWPOLYLINE
  5
1D0
330
1F
100
AcDbEntity
  8
Sichtbare_Kanten_TC_020513_DIN_
  6
Continuous
 62
     7
100
AcDbPolyline
 90
        2
 70
     0
 43
0.5
 10
-255.97196871067
 20
207.282389580974
 10
-256.6719687106699
 20
206.582389580974
  0
LWPOLYLINE
  5
1D1
330
1F
100
AcDbEntity
  8
Sichtbare_Kanten_TC_020513_DIN_
  6
Continuous
 62
     7
100
AcDbPolyline
 90
        2
 70
     0
 43
0.5
 10
-250.671968710672
 20
206.582389580974
 10
-256.6719687106699
 20
206.582389580974
  0
LWPOLYLINE
  5
1D2
330
1F
100
AcDbEntity
  8
Sichtbare_Kanten_TC_020513_DIN_
  6
Continuous
 62
     7
100
AcDbPolyline
 90
        2
 70
     0
 43
0.5
 10
-255.97196871067
 20
207.282389580974
 10
-250.671968710672
 20
207.282389580974
  0
LWPOLYLINE
  5
1D3
330
1F
100
AcDbEntity
  8
Sichtbare_Kanten_TC_020513_DIN_
  6
Continuous
 62
     7
100
AcDbPolyline
 90
        2
 70
     0
 43
0.5
 10
-255.97196871067
 20
205.282389580974
 10
-256.6719687106699
 20
205.982389580973
  0
LWPOLYLINE
  5
1D4
330
1F
100
AcDbEntity
  8
Sichtbare_Kanten_TC_020513_DIN_
  6
Continuous
 62
     7
100
AcDbPolyline
 90
        2
 70
     0
 43
0.5
 10
-256.6719687106699
 20
205.982389580973
 10
-250.671968710672
 20
205.982389580973
  0
LWPOLYLINE
  5
1D5
330
1F
100
AcDbEntity
  8
Sichtbare_Kanten_TC_020513_DIN_
  6
Continuous
 62
     7
100
AcDbPolyline
 90
        2
 70
     0
 43
0.5
 10
-250.671968710672
 20
205.282389580974
 10
-255.97196871067
 20
205.282389580974
  0
LWPOLYLINE
  5
1D6
330
1F
100
AcDbEntity
  8
Sichtbare_Kanten_TC_020513_DIN_
  6
Continuous
 62
     7
100
AcDbPolyline
 90
        2
 70
     0
 43
0.5
 10
-250.671968710672
 20
205.282389580974
 10
-218.671968710672
 20
205.282389580974
  0
LWPOLYLINE
  5
1D7
330
1F
100
AcDbEntity
  8
Sichtbare_Kanten_TC_020513_DIN_
  6
Continuous
 62
     7
100
AcDbPolyline
 90
        2
 70
     0
 43
0.5
 10
-218.671968710672
 20
204.282389580974
 10
-250.671968710672
 20
204.282389580974
  0
LWPOLYLINE
  5
1D8
330
1F
100
AcDbEntity
  8
Sichtbare_Kanten_TC_020513_DIN_
  6
Continuous
 62
     7
100
AcDbPolyline
 90
        2
 70
     0
 43
0.5
 10
-255.97196871067
 20
204.282389580974
 10
-256.6719687106699
 20
203.582389580974
  0
LWPOLYLINE
  5
1D9
330
1F
100
AcDbEntity
  8
Sichtbare_Kanten_TC_020513_DIN_
  6
Continuous
 62
     7
100
AcDbPolyline
 90
        2
 70
     0
 43
0.5
 10
-250.671968710672
 20
203.582389580974
 10
-256.6719687106699
 20
203.582389580974
  0
LWPOLYLINE
  5
1DA
330
1F
100
AcDbEntity
  8
Sichtbare_Kanten_TC_020513_DIN_
  6
Continuous
 62
     7
100
AcDbPolyline
 90
        2
 70
     0
 43
0.5
 10
-255.97196871067
 20
204.282389580974
 10
-250.671968710672
 20
204.282389580974
  0
LWPOLYLINE
  5
1DB
330
1F
100
AcDbEntity
  8
Sichtbare_Kanten_TC_020513_DIN_
  6
Continuous
 62
     7
100
AcDbPolyline
 90
        2
 70
     0
 43
0.5
 10
-255.97196871067
 20
202.282389580974
 10
-256.6719687106699
 20
202.982389580974
  0
LWPOLYLINE
  5
1DC
330
1F
100
AcDbEntity
  8
Sichtbare_Kanten_TC_020513_DIN_
  6
Continuous
 62
     7
100
AcDbPolyline
 90
        2
 70
     0
 43
0.5
 10
-256.6719687106699
 20
202.982389580974
 10
-250.671968710672
 20
202.982389580974
  0
LWPOLYLINE
  5
1DD
330
1F
100
AcDbEntity
  8
Sichtbare_Kanten_TC_020513_DIN_
  6
Continuous
 62
     7
100
AcDbPolyline
 90
        2
 70
     0
 43
0.5
 10
-250.671968710672
 20
202.282389580974
 10
-255.97196871067
 20
202.282389580974
  0
LWPOLYLINE
  5
1DE
330
1F
100
AcDbEntity
  8
Sichtbare_Kanten_TC_020513_DIN_
  6
Continuous
 62
     7
100
AcDbPolyline
 90
        2
 70
     0
 43
0.5
 10
-250.671968710672
 20
202.282389580974
 10
-218.671968710672
 20
202.282389580974
  0
LWPOLYLINE
  5
1DF
330
1F
100
AcDbEntity
  8
Sichtbare_Kanten_TC_020513_DIN_
  6
Continuous
 62
     7
100
AcDbPolyline
 90
        2
 70
     0
 43
0.5
 10
-218.671968710672
 20
201.282389580974
 10
-250.671968710672
 20
201.282389580974
  0
LWPOLYLINE
  5
1E0
330
1F
100
AcDbEntity
  8
Sichtbare_Kanten_TC_020513_DIN_
  6
Continuous
 62
     7
100
AcDbPolyline
 90
        2
 70
     0
 43
0.5
 10
-255.97196871067
 20
201.282389580974
 10
-256.6719687106699
 20
200.582389580974
  0
LWPOLYLINE
  5
1E1
330
1F
100
AcDbEntity
  8
Sichtbare_Kanten_TC_020513_DIN_
  6
Continuous
 62
     7
100
AcDbPolyline
 90
        2
 70
     0
 43
0.5
 10
-250.671968710672
 20
200.582389580974
 10
-256.6719687106699
 20
200.582389580974
  0
LWPOLYLINE
  5
1E2
330
1F
100
AcDbEntity
  8
Sichtbare_Kanten_TC_020513_DIN_
  6
Continuous
 62
     7
100
AcDbPolyline
 90
        2
 70
     0
 43
0.5
 10
-255.97196871067
 20
201.282389580974
 10
-250.671968710672
 20
201.282389580974
  0
LWPOLYLINE
  5
1E3
330
1F
100
AcDbEntity
  8
Sichtbare_Kanten_TC_020513_DIN_
  6
Continuous
 62
     7
100
AcDbPolyline
 90
        2
 70
     0
 43
0.5
 10
-256.6719687106699
 20
199.982389580974
 10
-255.97196871067
 20
199.282389580974
  0
LWPOLYLINE
  5
1E4
330
1F
100
AcDbEntity
  8
Sichtbare_Kanten_TC_020513_DIN_
  6
Continuous
 62
     7
100
AcDbPolyline
 90
        2
 70
     0
 43
0.5
 10
-256.6719687106699
 20
199.982389580974
 10
-250.671968710672
 20
199.982389580974
  0
LWPOLYLINE
  5
1E5
330
1F
100
AcDbEntity
  8
Sichtbare_Kanten_TC_020513_DIN_
  6
Continuous
 62
     7
100
AcDbPolyline
 90
        2
 70
     0
 43
0.5
 10
-255.97196871067
 20
198.282389580974
 10
-256.6719687106699
 20
197.582389580974
  0
LWPOLYLINE
  5
1E6
330
1F
100
AcDbEntity
  8
Sichtbare_Kanten_TC_020513_DIN_
  6
Continuous
 62
     7
100
AcDbPolyline
 90
        2
 70
     0
 43
0.5
 10
-250.671968710672
 20
197.582389580974
 10
-256.6719687106699
 20
197.582389580974
  0
LWPOLYLINE
  5
1E7
330
1F
100
AcDbEntity
  8
Sichtbare_Kanten_TC_020513_DIN_
  6
Continuous
 62
     7
100
AcDbPolyline
 90
        2
 70
     0
 43
0.5
 10
-256.6719687106699
 20
196.982389580974
 10
-250.671968710672
 20
196.982389580974
  0
LWPOLYLINE
  5
1E8
330
1F
100
AcDbEntity
  8
Sichtbare_Kanten_TC_020513_DIN_
  6
Continuous
 62
     7
100
AcDbPolyline
 90
        2
 70
     0
 43
0.5
 10
-256.6719687106699
 20
196.982389580974
 10
-255.97196871067
 20
196.282389580974
  0
LWPOLYLINE
  5
1E9
330
1F
100
AcDbEntity
  8
Sichtbare_Kanten_TC_020513_DIN_
  6
Continuous
 62
     7
100
AcDbPolyline
 90
        2
 70
     0
 43
0.5
 10
-255.97196871067
 20
195.282389580974
 10
-256.6719687106699
 20
194.582389580974
  0
LWPOLYLINE
  5
1EA
330
1F
100
AcDbEntity
  8
Sichtbare_Kanten_TC_020513_DIN_
  6
Continuous
 62
     7
100
AcDbPolyline
 90
        2
 70
     0
 43
0.5
 10
-250.671968710672
 20
194.582389580974
 10
-256.6719687106699
 20
194.582389580974
  0
LWPOLYLINE
  5
1EB
330
1F
100
AcDbEntity
  8
Sichtbare_Kanten_TC_020513_DIN_
  6
Continuous
 62
     7
100
AcDbPolyline
 90
        2
 70
     0
 43
0.5
 10
-215.671968710672
 20
208.282389580974
 10
-183.671968710672
 20
208.282389580974
  0
LWPOLYLINE
  5
1EC
330
1F
100
AcDbEntity
  8
Sichtbare_Kanten_TC_020513_DIN_
  6
Continuous
 62
     7
100
AcDbPolyline
 90
        2
 70
     0
 43
0.5
 10
-178.37196871067
 20
208.282389580974
 10
-177.6719687106699
 20
208.982389580974
  0
LWPOLYLINE
  5
1ED
330
1F
100
AcDbEntity
  8
Sichtbare_Kanten_TC_020513_DIN_
  6
Continuous
 62
     7
100
AcDbPolyline
 90
        2
 70
     0
 43
0.5
 10
-183.671968710672
 20
208.982389580974
 10
-177.6719687106699
 20
208.982389580974
  0
LWPOLYLINE
  5
1EE
330
1F
100
AcDbEntity
  8
Sichtbare_Kanten_TC_020513_DIN_
  6
Continuous
 62
     7
100
AcDbPolyline
 90
        2
 70
     0
 43
0.5
 10
-178.37196871067
 20
208.282389580974
 10
-183.671968710672
 20
208.282389580974
  0
LWPOLYLINE
  5
1EF
330
1F
100
AcDbEntity
  8
Sichtbare_Kanten_TC_020513_DIN_
  6
Continuous
 62
     7
100
AcDbPolyline
 90
        2
 70
     0
 43
0.5
 10
-178.37196871067
 20
207.282389580974
 10
-177.6719687106699
 20
206.582389580974
  0
LWPOLYLINE
  5
1F0
330
1F
100
AcDbEntity
  8
Sichtbare_Kanten_TC_020513_DIN_
  6
Continuous
 62
     7
100
AcDbPolyline
 90
        2
 70
     0
 43
0.5
 10
-177.6719687106699
 20
206.582389580974
 10
-183.671968710672
 20
206.582389580974
  0
LWPOLYLINE
  5
1F1
330
1F
100
AcDbEntity
  8
Sichtbare_Kanten_TC_020513_DIN_
  6
Continuous
 62
     7
100
AcDbPolyline
 90
        2
 70
     0
 43
0.5
 10
-183.671968710672
 20
207.282389580974
 10
-178.37196871067
 20
207.282389580974
  0
LWPOLYLINE
  5
1F2
330
1F
100
AcDbEntity
  8
Sichtbare_Kanten_TC_020513_DIN_
  6
Continuous
 62
     7
100
AcDbPolyline
 90
        2
 70
     0
 43
0.5
 10
-183.671968710672
 20
207.282389580974
 10
-215.671968710672
 20
207.282389580974
  0
LWPOLYLINE
  5
1F3
330
1F
100
AcDbEntity
  8
Sichtbare_Kanten_TC_020513_DIN_
  6
Continuous
 62
     7
100
AcDbPolyline
 90
        2
 70
     0
 43
0.5
 10
-183.671968710672
 20
205.982389580973
 10
-177.6719687106699
 20
205.982389580973
  0
LWPOLYLINE
  5
1F4
330
1F
100
AcDbEntity
  8
Sichtbare_Kanten_TC_020513_DIN_
  6
Continuous
 62
     7
100
AcDbPolyline
 90
        2
 70
     0
 43
0.5
 10
-177.6719687106699
 20
205.982389580973
 10
-178.37196871067
 20
205.282389580974
  0
LWPOLYLINE
  5
1F5
330
1F
100
AcDbEntity
  8
Sichtbare_Kanten_TC_020513_DIN_
  6
Continuous
 62
     7
100
AcDbPolyline
 90
        2
 70
     0
 43
0.5
 10
-178.37196871067
 20
205.282389580974
 10
-183.671968710672
 20
205.282389580974
  0
LWPOLYLINE
  5
1F6
330
1F
100
AcDbEntity
  8
Sichtbare_Kanten_TC_020513_DIN_
  6
Continuous
 62
     7
100
AcDbPolyline
 90
        2
 70
     0
 43
0.5
 10
-215.671968710672
 20
205.282389580974
 10
-183.671968710672
 20
205.282389580974
  0
LWPOLYLINE
  5
1F7
330
1F
100
AcDbEntity
  8
Sichtbare_Kanten_TC_020513_DIN_
  6
Continuous
 62
     7
100
AcDbPolyline
 90
        2
 70
     0
 43
0.5
 10
-178.37196871067
 20
204.282389580974
 10
-177.6719687106699
 20
203.582389580974
  0
LWPOLYLINE
  5
1F8
330
1F
100
AcDbEntity
  8
Sichtbare_Kanten_TC_020513_DIN_
  6
Continuous
 62
     7
100
AcDbPolyline
 90
        2
 70
     0
 43
0.5
 10
-177.6719687106699
 20
203.582389580974
 10
-183.671968710672
 20
203.582389580974
  0
LWPOLYLINE
  5
1F9
330
1F
100
AcDbEntity
  8
Sichtbare_Kanten_TC_020513_DIN_
  6
Continuous
 62
     7
100
AcDbPolyline
 90
        2
 70
     0
 43
0.5
 10
-183.671968710672
 20
204.282389580974
 10
-178.37196871067
 20
204.282389580974
  0
LWPOLYLINE
  5
1FA
330
1F
100
AcDbEntity
  8
Sichtbare_Kanten_TC_020513_DIN_
  6
Continuous
 62
     7
100
AcDbPolyline
 90
        2
 70
     0
 43
0.5
 10
-183.671968710672
 20
204.282389580974
 10
-215.671968710672
 20
204.282389580974
  0
LWPOLYLINE
  5
1FB
330
1F
100
AcDbEntity
  8
Sichtbare_Kanten_TC_020513_DIN_
  6
Continuous
 62
     7
100
AcDbPolyline
 90
        2
 70
     0
 43
0.5
 10
-215.671968710672
 20
202.282389580974
 10
-183.671968710672
 20
202.282389580974
  0
LWPOLYLINE
  5
1FC
330
1F
100
AcDbEntity
  8
Sichtbare_Kanten_TC_020513_DIN_
  6
Continuous
 62
     7
100
AcDbPolyline
 90
        2
 70
     0
 43
0.5
 10
-178.37196871067
 20
202.282389580974
 10
-177.6719687106699
 20
202.982389580974
  0
LWPOLYLINE
  5
1FD
330
1F
100
AcDbEntity
  8
Sichtbare_Kanten_TC_020513_DIN_
  6
Continuous
 62
     7
100
AcDbPolyline
 90
        2
 70
     0
 43
0.5
 10
-183.671968710672
 20
202.982389580974
 10
-177.6719687106699
 20
202.982389580974
  0
LWPOLYLINE
  5
1FE
330
1F
100
AcDbEntity
  8
Sichtbare_Kanten_TC_020513_DIN_
  6
Continuous
 62
     7
100
AcDbPolyline
 90
        2
 70
     0
 43
0.5
 10
-178.37196871067
 20
202.282389580974
 10
-183.671968710672
 20
202.282389580974
  0
LWPOLYLINE
  5
1FF
330
1F
100
AcDbEntity
  8
Sichtbare_Kanten_TC_020513_DIN_
  6
Continuous
 62
     7
100
AcDbPolyline
 90
        2
 70
     0
 43
0.5
 10
-178.37196871067
 20
201.282389580974
 10
-177.6719687106699
 20
200.582389580974
  0
LWPOLYLINE
  5
200
330
1F
100
AcDbEntity
  8
Sichtbare_Kanten_TC_020513_DIN_
  6
Continuous
 62
     7
100
AcDbPolyline
 90
        2
 70
     0
 43
0.5
 10
-177.6719687106699
 20
200.582389580974
 10
-183.671968710672
 20
200.582389580974
  0
LWPOLYLINE
  5
201
330
1F
100
AcDbEntity
  8
Sichtbare_Kanten_TC_020513_DIN_
  6
Continuous
 62
     7
100
AcDbPolyline
 90
        2
 70
     0
 43
0.5
 10
-183.671968710672
 20
201.282389580974
 10
-178.37196871067
 20
201.282389580974
  0
LWPOLYLINE
  5
202
330
1F
100
AcDbEntity
  8
Sichtbare_Kanten_TC_020513_DIN_
  6
Continuous
 62
     7
100
AcDbPolyline
 90
        2
 70
     0
 43
0.5
 10
-183.671968710672
 20
201.282389580974
 10
-215.671968710672
 20
201.282389580974
  0
LWPOLYLINE
  5
203
330
1F
100
AcDbEntity
  8
Sichtbare_Kanten_TC_020513_DIN_
  6
Continuous
 62
     7
100
AcDbPolyline
 90
        2
 70
     0
 43
0.5
 10
-183.671968710672
 20
199.982389580974
 10
-177.6719687106699
 20
199.982389580974
  0
LWPOLYLINE
  5
204
330
1F
100
AcDbEntity
  8
Sichtbare_Kanten_TC_020513_DIN_
  6
Continuous
 62
     7
100
AcDbPolyline
 90
        2
 70
     0
 43
0.5
 10
-177.6719687106699
 20
199.982389580974
 10
-178.37196871067
 20
199.282389580974
  0
LWPOLYLINE
  5
205
330
1F
100
AcDbEntity
  8
Sichtbare_Kanten_TC_020513_DIN_
  6
Continuous
 62
     7
100
AcDbPolyline
 90
        2
 70
     0
 43
0.5
 10
-178.37196871067
 20
198.282389580974
 10
-177.6719687106699
 20
197.582389580974
  0
LWPOLYLINE
  5
206
330
1F
100
AcDbEntity
  8
Sichtbare_Kanten_TC_020513_DIN_
  6
Continuous
 62
     7
100
AcDbPolyline
 90
        2
 70
     0
 43
0.5
 10
-177.6719687106699
 20
197.582389580974
 10
-183.671968710672
 20
197.582389580974
  0
LWPOLYLINE
  5
207
330
1F
100
AcDbEntity
  8
Sichtbare_Kanten_TC_020513_DIN_
  6
Continuous
 62
     7
100
AcDbPolyline
 90
        2
 70
     0
 43
0.5
 10
-183.671968710672
 20
196.982389580974
 10
-177.6719687106699
 20
196.982389580974
  0
LWPOLYLINE
  5
208
330
1F
100
AcDbEntity
  8
Sichtbare_Kanten_TC_020513_DIN_
  6
Continuous
 62
     7
100
AcDbPolyline
 90
        2
 70
     0
 43
0.5
 10
-177.6719687106699
 20
196.982389580974
 10
-178.37196871067
 20
196.282389580974
  0
LWPOLYLINE
  5
209
330
1F
100
AcDbEntity
  8
Sichtbare_Kanten_TC_020513_DIN_
  6
Continuous
 62
     7
100
AcDbPolyline
 90
        2
 70
     0
 43
0.5
 10
-178.37196871067
 20
195.282389580974
 10
-177.6719687106699
 20
194.582389580974
  0
LWPOLYLINE
  5
20A
330
1F
100
AcDbEntity
  8
Sichtbare_Kanten_TC_020513_DIN_
  6
Continuous
 62
     7
100
AcDbPolyline
 90
        2
 70
     0
 43
0.5
 10
-177.6719687106699
 20
194.582389580974
 10
-183.671968710672
 20
194.582389580974
  0
LWPOLYLINE
  5
20B
330
1F
100
AcDbEntity
  8
Sichtbare_Kanten_TC_020513_DIN_
  6
Continuous
 62
     7
100
AcDbPolyline
 90
        2
 70
     0
 43
0.5
 10
-215.671968710672
 20
199.982389580974
 10
-215.671968710672
 20
199.648989846314
  0
LWPOLYLINE
  5
20C
330
1F
100
AcDbEntity
  8
Sichtbare_Kanten_TC_020513_DIN_
  6
Continuous
 62
     7
100
AcDbPolyline
 90
        2
 70
     0
 43
0.5
 10
-215.671968710672
 20
202.982389580974
 10
-215.671968710672
 20
200.582389580974
  0
LWPOLYLINE
  5
20D
330
1F
100
AcDbEntity
  8
Sichtbare_Kanten_TC_020513_DIN_
  6
Continuous
 62
     7
100
AcDbPolyline
 90
        2
 70
     0
 43
0.5
 10
-215.671968710672
 20
205.982389580973
 10
-215.671968710672
 20
203.582389580974
  0
LWPOLYLINE
  5
20E
330
1F
100
AcDbEntity
  8
Sichtbare_Kanten_TC_020513_DIN_
  6
Continuous
 62
     7
100
AcDbPolyline
 90
        2
 70
     0
 43
0.5
 10
-215.671968710672
 20
208.982389580974
 10
-215.671968710672
 20
206.582389580974
  0
LWPOLYLINE
  5
20F
330
1F
100
AcDbEntity
  8
Sichtbare_Kanten_TC_020513_DIN_
  6
Continuous
 62
     7
100
AcDbPolyline
 90
        2
 70
     0
 43
0.5
 10
-218.671968710672
 20
206.582389580974
 10
-218.671968710672
 20
208.982389580974
  0
LWPOLYLINE
  5
210
330
1F
100
AcDbEntity
  8
Sichtbare_Kanten_TC_020513_DIN_
  6
Continuous
 62
     7
100
AcDbPolyline
 90
        2
 70
     0
 43
0.5
 10
-218.671968710672
 20
203.582389580974
 10
-218.671968710672
 20
205.982389580973
  0
LWPOLYLINE
  5
211
330
1F
100
AcDbEntity
  8
Sichtbare_Kanten_TC_020513_DIN_
  6
Continuous
 62
     7
100
AcDbPolyline
 90
        2
 70
     0
 43
0.5
 10
-218.671968710672
 20
200.582389580974
 10
-218.671968710672
 20
202.982389580974
  0
LWPOLYLINE
  5
212
330
1F
100
AcDbEntity
  8
Sichtbare_Kanten_TC_020513_DIN_
  6
Continuous
 62
     7
100
AcDbPolyline
 90
        2
 70
     0
 43
0.5
 10
-218.671968710672
 20
199.648989846314
 10
-218.671968710672
 20
199.982389580974
  0
LWPOLYLINE
  5
213
330
1F
100
AcDbEntity
  8
Sichtbare_Kanten_TC_020513_DIN_
  6
Continuous
 62
     7
100
AcDbPolyline
 90
        2
 70
     0
 43
0.5
 10
-183.671968710672
 20
173.782389580974
 10
-211.171968710672
 20
173.782389580974
  0
LWPOLYLINE
  5
214
330
1F
100
AcDbEntity
  8
Sichtbare_Kanten_TC_020513_DIN_
  6
Continuous
 62
     7
100
AcDbPolyline
 90
        2
 70
     0
 43
0.5
 10
-223.171968710672
 20
173.782389580974
 10
-250.671968710672
 20
173.782389580974
  0
LWPOLYLINE
  5
215
330
1F
100
AcDbEntity
  8
Sichtbare_Kanten_TC_020513_DIN_
  6
Continuous
 62
     7
100
AcDbPolyline
 90
        2
 70
     0
 43
0.5
 10
-255.6719687106699
 20
207.282389580974
 10
-255.6719687106699
 20
208.282389580974
  0
LWPOLYLINE
  5
216
330
1F
100
AcDbEntity
  8
Sichtbare_Kanten_TC_020513_DIN_
  6
Continuous
 62
     7
100
AcDbPolyline
 90
        2
 70
     0
 43
0.5
 10
-255.6719687106699
 20
204.282389580974
 10
-255.6719687106699
 20
205.282389580974
  0
LWPOLYLINE
  5
217
330
1F
100
AcDbEntity
  8
Sichtbare_Kanten_TC_020513_DIN_
  6
Continuous
 62
     7
100
AcDbPolyline
 90
        2
 70
     0
 43
0.5
 10
-255.6719687106699
 20
201.282389580974
 10
-255.6719687106699
 20
202.282389580974
  0
LWPOLYLINE
  5
218
330
1F
100
AcDbEntity
  8
Sichtbare_Kanten_TC_020513_DIN_
  6
Continuous
 62
     7
100
AcDbPolyline
 90
        2
 70
     0
 43
0.5
 10
-255.6719687106699
 20
198.282389580974
 10
-255.6719687106699
 20
199.282389580974
  0
LWPOLYLINE
  5
219
330
1F
100
AcDbEntity
  8
Sichtbare_Kanten_TC_020513_DIN_
  6
Continuous
 62
     7
100
AcDbPolyline
 90
        2
 70
     0
 43
0.5
 10
-255.6719687106699
 20
195.282389580974
 10
-255.6719687106699
 20
196.282389580974
  0
LWPOLYLINE
  5
21A
330
1F
100
AcDbEntity
  8
Sichtbare_Kanten_TC_020513_DIN_
  6
Continuous
 62
     7
100
AcDbPolyline
 90
        2
 70
     0
 43
0.5
 10
-178.6719687106699
 20
207.282389580974
 10
-178.6719687106699
 20
208.282389580974
  0
LWPOLYLINE
  5
21B
330
1F
100
AcDbEntity
  8
Sichtbare_Kanten_TC_020513_DIN_
  6
Continuous
 62
     7
100
AcDbPolyline
 90
        2
 70
     0
 43
0.5
 10
-178.6719687106699
 20
204.282389580974
 10
-178.6719687106699
 20
205.282389580974
  0
LWPOLYLINE
  5
21C
330
1F
100
AcDbEntity
  8
Sichtbare_Kanten_TC_020513_DIN_
  6
Continuous
 62
     7
100
AcDbPolyline
 90
        2
 70
     0
 43
0.5
 10
-178.6719687106699
 20
201.282389580974
 10
-178.6719687106699
 20
202.282389580974
  0
LWPOLYLINE
  5
21D
330
1F
100
AcDbEntity
  8
Sichtbare_Kanten_TC_020513_DIN_
  6
Continuous
 62
     7
100
AcDbPolyline
 90
        2
 70
     0
 43
0.5
 10
-178.6719687106699
 20
198.282389580974
 10
-178.6719687106699
 20
199.282389580974
  0
LWPOLYLINE
  5
21E
330
1F
100
AcDbEntity
  8
Sichtbare_Kanten_TC_020513_DIN_
  6
Continuous
 62
     7
100
AcDbPolyline
 90
        2
 70
     0
 43
0.5
 10
-178.6719687106699
 20
195.282389580974
 10
-178.6719687106699
 20
196.282389580974
  0
LWPOLYLINE
  5
21F
330
1F
100
AcDbEntity
  8
Sichtbare_Kanten_TC_020513_DIN_
  6
Continuous
 62
     7
100
AcDbPolyline
 90
        2
 70
     0
 43
0.5
 10
-183.671968710667
 20
280.782389580974
 10
-180.671968710667
 20
280.782389580974
  0
LWPOLYLINE
  5
220
330
1F
100
AcDbEntity
  8
Sichtbare_Kanten_TC_020513_DIN_
  6
Continuous
 62
     7
100
AcDbPolyline
 90
        2
 70
     0
 43
0.5
 10
-253.671968710667
 20
280.782389580974
 10
-250.671968710667
 20
280.782389580974
  0
LWPOLYLINE
  5
221
330
1F
100
AcDbEntity
  8
Sichtbare_Kanten_TC_020513_DIN_
  6
Continuous
 62
     7
100
AcDbPolyline
 90
        2
 70
     0
 43
0.5
 10
-183.671968710667
 20
280.782389580974
 10
-250.671968710667
 20
280.782389580974
  0
LWPOLYLINE
  5
222
330
1F
100
AcDbEntity
  8
Sichtbare_Kanten_TC_020513_DIN_
  6
Continuous
 62
     7
100
AcDbPolyline
 90
        2
 70
     0
 43
0.5
 10
-334.421970554926
 20
208.982389580974
 10
-334.421970554926
 20
209.237622013062
  0
LWPOLYLINE
  5
223
330
1F
100
AcDbEntity
  8
Sichtbare_Kanten_TC_020513_DIN_
  6
Continuous
 62
     7
100
AcDbPolyline
 90
        2
 70
     0
 43
0.5
 10
-455.421970554926
 20
209.237622013062
 10
-455.421970554926
 20
208.689530304341
  0
LWPOLYLINE
  5
224
330
1F
100
AcDbEntity
  8
Sichtbare_Kanten_TC_020513_DIN_
  6
Continuous
 62
     7
100
AcDbPolyline
 90
        2
 70
     0
 43
0.5
 10
-325.7358270562265
 20
267.8370108480012
 10
-344.4251293223321
 20
264.4150259260383
  0
LWPOLYLINE
  5
225
330
1F
100
AcDbEntity
  8
Sichtbare_Kanten_TC_020513_DIN_
  6
Continuous
 62
     7
100
AcDbPolyline
 90
        2
 70
     0
 43
0.5
 10
-318.5316482731463
 20
228.4911113404108
 10
-337.2209505392518
 20
225.0691264184476
  0
LWPOLYLINE
  5
226
330
1F
100
AcDbEntity
  8
Sichtbare_Kanten_TC_020513_DIN_
  6
Continuous
 62
     7
100
AcDbPolyline
 90
        2
 70
     0
 43
0.5
 10
-325.7358270562265
 20
267.8370108480012
 10
-318.5316482731463
 20
228.4911113404108
  0
ARC
  5
227
102
{ACAD_REACTORS
330
2BD
102
}
330
1F
100
AcDbEntity
  8
1
  6
Continuous
 62
     7
100
AcDbCircle
 10
-39.45079953089748
 20
31.46243462406914
 30
0.0
 40
0.5299324249506568
100
AcDbArc
 50
30.00000000001384
 51
180.0
  0
ARC
  5
228
102
{ACAD_REACTORS
330
2BD
102
}
330
1F
100
AcDbEntity
  8
1
  6
Continuous
 62
     7
100
AcDbCircle
 10
-39.31406528918138
 20
21.69517014526582
 30
0.0
 40
0.6666666666667425
100
AcDbArc
 50
180.0
 51
0.0
  0
ARC
  5
229
102
{ACAD_REACTORS
330
2BD
102
}
330
1F
100
AcDbEntity
  8
1
  6
Continuous
 62
     7
100
AcDbCircle
 10
-33.98073195584788
 20
18.61653814120359
 30
0.0
 40
0.6666666666667638
100
AcDbArc
 50
180.0
 51
0.0
  0
ARC
  5
22A
102
{ACAD_REACTORS
330
2BD
102
}
330
1F
100
AcDbEntity
  8
1
  6
Continuous
 62
     7
100
AcDbCircle
 10
-33.843997714132
 20
31.46243462406914
 30
0.0
 40
0.5299324249506228
100
AcDbArc
 50
0.0
 51
149.9999999999743
  0
ARC
  5
22B
102
{ACAD_REACTORS
330
2BE
102
}
330
1F
100
AcDbEntity
  8
1
  6
Continuous
 62
     7
100
AcDbCircle
 10
-41.98073195584812
 20
29.84500032033474
 30
0.0
 40
0.6666666666667425
100
AcDbArc
 50
0.0
 51
180.0
  0
ARC
  5
22C
102
{ACAD_REACTORS
330
2BE
102
}
330
1F
100
AcDbEntity
  8
1
  6
Continuous
 62
     7
100
AcDbCircle
 10
-37.31406528918138
 20
17.4626919873574
 30
0.0
 40
0.6666666666667316
100
AcDbArc
 50
240.0183606311502
 51
60.01836063115043
  0
ARC
  5
22D
102
{ACAD_REACTORS
330
2BF
102
}
330
1F
100
AcDbEntity
  8
1
  6
Continuous
 62
     7
100
AcDbCircle
 10
-44.64739862251464
 20
28.30653878187332
 30
0.0
 40
0.6666666666665222
100
AcDbArc
 50
0.0
 51
180.0
  0
ARC
  5
22E
102
{ACAD_REACTORS
330
2BF
102
}
330
1F
100
AcDbEntity
  8
1
  6
Continuous
 62
     7
100
AcDbCircle
 10
-44.64739862251464
 20
21.69346121812646
 30
0.0
 40
0.6666666666667354
100
AcDbArc
 50
180.0
 51
0.0
  0
ARC
  5
22F
102
{ACAD_REACTORS
330
2C0
102
}
330
1F
100
AcDbEntity
  8
1
  6
Continuous
 62
     7
100
AcDbCircle
 10
-28.64739862251462
 20
28.30653878187332
 30
0.0
 40
0.6666666666667546
100
AcDbArc
 50
240.0183606311493
 51
60.01836063115717
  0
ARC
  5
230
102
{ACAD_REACTORS
330
2C0
102
}
330
1F
100
AcDbEntity
  8
1
  6
Continuous
 62
     7
100
AcDbCircle
 10
-28.64739862251462
 20
25.0
 30
0.0
 40
0.6666666666667389
100
AcDbArc
 50
270.0
 51
90.0
  0
ARC
  5
231
102
{ACAD_REACTORS
330
2C0
102
}
330
1F
100
AcDbEntity
  8
1
  6
Continuous
 62
     7
100
AcDbCircle
 10
-28.64739862251462
 20
21.69346121812646
 30
0.0
 40
0.666666666666629
100
AcDbArc
 50
299.9816393688326
 51
119.9816393688413
  0
LWPOLYLINE
  5
232
330
1F
100
AcDbEntity
  8
Sichtbare_Kanten_TC_020513_DIN_
  6
Continuous
 62
     7
100
AcDbPolyline
 90
        2
 70
     0
 43
0.5
 10
-392.296970554926
 20
242.786956688457
 42
0.57724345630775
 10
-391.734574634867
 20
242.462137093688
 42
0.57724345630775
  0
LWPOLYLINE
  5
233
330
1F
100
AcDbEntity
  8
Sichtbare_Kanten_TC_020513_DIN_
  6
Continuous
 62
     7
100
AcDbPolyline
 90
        2
 70
     0
 43
0.5
 10
-390.234574634867
 20
243.327521709073
 42
0.99999999999877
 10
-390.609366474984
 20
243.977160898609
 42
0.99999999999877
  0
LWPOLYLINE
  5
234
330
1F
100
AcDbEntity
  8
Sichtbare_Kanten_TC_020513_DIN_
  6
Continuous
 62
     7
100
AcDbPolyline
 90
        2
 70
     0
 43
0.5
 10
-390.421970554926
 20
245.007389580974
 42
1.0
 10
-390.421970554926
 20
245.757389580974
 42
1.0
  0
LWPOLYLINE
  5
235
330
1F
100
AcDbEntity
  8
Sichtbare_Kanten_TC_020513_DIN_
  6
Continuous
 62
     7
100
AcDbPolyline
 90
        2
 70
     0
 43
0.5
 10
-390.609366474984
 20
246.787618263338
 42
0.99999999999875
 10
-390.234574634867
 20
247.437257452874
 42
0.99999999999875
  0
LWPOLYLINE
  5
236
330
1F
100
AcDbEntity
  8
Sichtbare_Kanten_TC_020513_DIN_
  6
Continuous
 62
     7
100
AcDbPolyline
 90
        2
 70
     0
 43
0.5
 10
-391.734574634867
 20
248.302642068259
 42
0.57724345630819
 10
-392.296970554926
 20
247.977822473491
 42
0.57724345630819
  0
LWPOLYLINE
  5
237
330
1F
100
AcDbEntity
  8
Sichtbare_Kanten_TC_020513_DIN_
  6
Continuous
 62
     7
100
AcDbPolyline
 90
        2
 70
     0
 43
0.5
 10
-399.121970554926
 20
247.069168627337
 42
1.0
 10
-399.871970554926
 20
247.069168627337
 42
1.0
  0
LWPOLYLINE
  5
238
330
1F
100
AcDbEntity
  8
Sichtbare_Kanten_TC_020513_DIN_
  6
Continuous
 62
     7
100
AcDbPolyline
 90
        2
 70
     0
 43
0.5
 10
-399.871970554926
 20
243.69561053461
 42
1.0
 10
-399.121970554926
 20
243.69561053461
 42
1.0
  0
LWPOLYLINE
  5
239
330
1F
100
AcDbEntity
  8
Sichtbare_Kanten_TC_020513_DIN_
  6
Continuous
 62
     7
100
AcDbPolyline
 90
        2
 70
     0
 43
0.5
 10
-398.371970554926
 20
242.830225919226
 42
0.26803505952235
 10
-398.184366474984
 20
242.505406324458
 42
0.26803505952235
  0
LWPOLYLINE
  5
23A
330
1F
100
AcDbEntity
  8
Sichtbare_Kanten_TC_020513_DIN_
  6
Continuous
 62
     7
100
AcDbPolyline
 90
        2
 70
     0
 43
0.5
 10
-395.109366481829
 20
240.731367866868
 42
1.00000001053604
 10
-394.734574634867
 20
241.381007052456
 42
1.00000001053604
  0
LWPOLYLINE
  5
23B
330
1F
100
AcDbEntity
  8
Sichtbare_Kanten_TC_020513_DIN_
  6
Continuous
 62
     7
100
AcDbPolyline
 90
        2
 70
     0
 43
0.5
 10
-397.621970554926
 20
247.934553242721
 42
1.0
 10
-398.371970554926
 20
247.934553242721
 42
1.0
  0
LWPOLYLINE
  5
23C
330
1F
100
AcDbEntity
  8
Sichtbare_Kanten_TC_020513_DIN_
  6
Continuous
 62
     7
100
AcDbPolyline
 90
        2
 70
     0
 43
0.5
 10
-393.796970554926
 20
241.921572073072
 42
1.0
 10
-393.046970554926
 20
241.921572073072
 42
1.0
  0
LWPOLYLINE
  5
23D
330
1F
100
AcDbEntity
  8
Sichtbare_Kanten_TC_020513_DIN_
  6
Continuous
 62
     7
100
AcDbPolyline
 90
        2
 70
     0
 43
0.5
 10
-393.046970554926
 20
248.843207088875
 42
0.72714551713764
 10
-393.7256994144159
 20
249.063147489694
 42
0.72714551713764
  0
LWPOLYLINE
  5
23E
330
1F
100
AcDbEntity
  8
Sichtbare_Kanten_TC_020513_DIN_
  6
Continuous
 62
     7
100
AcDbPolyline
 90
        2
 70
     0
 43
0.5
 10
-396.118241695435
 20
249.063147489694
 42
0.72714551713832
 10
-396.796970554926
 20
248.843207088875
 42
0.72714551713832
  0
LWPOLYLINE
  5
23F
330
1F
100
AcDbEntity
  8
Sichtbare_Kanten_TC_020513_DIN_
  6
Continuous
 62
     7
100
AcDbPolyline
 90
        2
 70
     0
 43
0.5
 10
-396.796970554926
 20
243.69561053461
 42
1.0
 10
-396.046970554926
 20
243.69561053461
 42
1.0
  0
LWPOLYLINE
  5
240
330
1F
100
AcDbEntity
  8
Sichtbare_Kanten_TC_020513_DIN_
  6
Continuous
 62
     7
100
AcDbPolyline
 90
        2
 70
     0
 43
0.5
 10
-455.323855481064
 20
210.318248830524
 42
0.04530412103549
 10
-455.421970554926
 20
209.237622013062
 42
0.04530412103549
  0
LWPOLYLINE
  5
241
330
1F
100
AcDbEntity
  8
Sichtbare_Kanten_TC_020513_DIN_
  6
Continuous
 62
     7
100
AcDbPolyline
 90
        2
 70
     0
 43
0.5
 10
-334.421970554926
 20
209.237622013062
 42
0.04530412103549
 10
-334.5200856287869
 20
210.318248830524
 42
0.04530412103549
  0
LWPOLYLINE
  5
242
330
1F
100
AcDbEntity
  8
Sichtbare_Kanten_TC_020513_DIN_
  6
Continuous
 62
     7
100
AcDbPolyline
 90
        2
 70
     0
 43
0.5
 10
-346.971605404412
 20
278.322702989705
 42
0.36211415863064
 10
-349.9225478674809
 20
280.782389580974
 42
0.36211415863064
  0
LWPOLYLINE
  5
243
330
1F
100
AcDbEntity
  8
Sichtbare_Kanten_TC_020513_DIN_
  6
Continuous
 62
     7
100
AcDbPolyline
 90
        2
 70
     0
 43
0.5
 10
-439.92139324237
 20
280.782389580974
 42
0.36211415863066
 10
-442.87233570544
 20
278.322702989705
 42
0.36211415863066
  0
LWPOLYLINE
  5
244
330
1F
100
AcDbEntity
  8
Sichtbare_Kanten_TC_020513_DIN_
  6
Continuous
 62
     7
100
AcDbPolyline
 90
        2
 70
     0
 43
0.5
 10
-219.308942092351
 20
189.984951811363
 42
0.06707285614619
 10
-219.11627892579
 20
190.150065516316
 42
0.06707285614619
  0
LWPOLYLINE
  5
245
330
1F
100
AcDbEntity
  8
Sichtbare_Kanten_TC_020513_DIN_
  6
Continuous
 62
     7
100
AcDbPolyline
 90
        2
 70
     0
 43
0.5
 10
-220.0533746175209
 20
188.882389580974
 42
1.00000000000043
 10
-219.092905981906
 20
189.682389580974
 42
1.00000000000043
  0
LWPOLYLINE
  5
246
330
1F
100
AcDbEntity
  8
Sichtbare_Kanten_TC_020513_DIN_
  6
Continuous
 62
     7
100
AcDbPolyline
 90
        2
 70
     0
 43
0.5
 10
-219.308942092351
 20
189.984951811363
 42
0.03722887321943
 10
-219.092905981906
 20
189.682389580974
 42
0.03722887321943
  0
LWPOLYLINE
  5
247
330
1F
100
AcDbEntity
  8
Sichtbare_Kanten_TC_020513_DIN_
  6
Continuous
 62
     7
100
AcDbPolyline
 90
        2
 70
     0
 43
0.5
 10
-219.505281374761
 20
192.179970781544
 42
0.29635834283665
 10
-219.392235609084
 20
191.646964538745
 42
0.29635834283665
  0
LWPOLYLINE
  5
248
330
1F
100
AcDbEntity
  8
Sichtbare_Kanten_TC_020513_DIN_
  6
Continuous
 62
     7
100
AcDbPolyline
 90
        2
 70
     0
 43
0.5
 10
-218.48611996289
 20
193.409125692085
 42
0.16396458783958
 10
-219.505281374761
 20
192.179970781544
 42
0.16396458783958
  0
LWPOLYLINE
  5
249
330
1F
100
AcDbEntity
  8
Sichtbare_Kanten_TC_020513_DIN_
  6
Continuous
 62
     7
100
AcDbPolyline
 90
        2
 70
     0
 43
0.5
 10
-217.941398386052
 20
193.396740066265
 42
0.29635834283623
 10
-218.48611996289
 20
193.409125692085
 42
0.29635834283623
  0
LWPOLYLINE
  5
24A
330
1F
100
AcDbEntity
  8
Sichtbare_Kanten_TC_020513_DIN_
  6
Continuous
 62
     7
100
AcDbPolyline
 90
        2
 70
     0
 43
0.5
 10
-215.857817458462
 20
193.409125692085
 42
0.29635834283623
 10
-216.4025390353
 20
193.396740066265
 42
0.29635834283623
  0
LWPOLYLINE
  5
24B
330
1F
100
AcDbEntity
  8
Sichtbare_Kanten_TC_020513_DIN_
  6
Continuous
 62
     7
100
AcDbPolyline
 90
        2
 70
     0
 43
0.5
 10
-214.83865604659
 20
192.179970781544
 42
0.16396458783962
 10
-215.857817458462
 20
193.409125692085
 42
0.16396458783962
  0
LWPOLYLINE
  5
24C
330
1F
100
AcDbEntity
  8
Sichtbare_Kanten_TC_020513_DIN_
  6
Continuous
 62
     7
100
AcDbPolyline
 90
        2
 70
     0
 43
0.5
 10
-214.951701812268
 20
191.646964538745
 42
0.29635834283705
 10
-214.83865604659
 20
192.179970781544
 42
0.29635834283705
  0
LWPOLYLINE
  5
24D
330
1F
100
AcDbEntity
  8
Sichtbare_Kanten_TC_020513_DIN_
  6
Continuous
 62
     7
100
AcDbPolyline
 90
        2
 70
     0
 43
0.5
 10
-215.227658495562
 20
190.150065516316
 42
0.06707285614619
 10
-215.034995329001
 20
189.984951811363
 42
0.06707285614619
  0
LWPOLYLINE
  5
24E
330
1F
100
AcDbEntity
  8
Sichtbare_Kanten_TC_020513_DIN_
  6
Continuous
 62
     7
100
AcDbPolyline
 90
        2
 70
     0
 43
0.5
 10
-215.251031439446
 20
189.682389580974
 42
0.03722887321943
 10
-215.034995329001
 20
189.984951811363
 42
0.03722887321943
  0
LWPOLYLINE
  5
24F
330
1F
100
AcDbEntity
  8
Sichtbare_Kanten_TC_020513_DIN_
  6
Continuous
 62
     7
100
AcDbPolyline
 90
        2
 70
     0
 43
0.5
 10
-215.251031439446
 20
189.682389580974
 42
1.00000000000049
 10
-214.290562803831
 20
188.882389580974
 42
1.00000000000049
  0
LWPOLYLINE
  5
250
330
1F
100
AcDbEntity
  8
Sichtbare_Kanten_TC_020513_DIN_
  6
Continuous
 62
     7
100
AcDbPolyline
 90
        2
 70
     0
 43
0.5
 10
-214.290562803831
 20
188.882389580974
 42
2.13437474581087
 10
-220.0533746175209
 20
188.882389580974
 42
2.13437474581087
  0
LWPOLYLINE
  5
251
330
1F
100
AcDbEntity
  8
Sichtbare_Kanten_TC_020513_DIN_
  6
Continuous
 62
     7
100
AcDbPolyline
 90
        2
 70
     0
 43
0.5
 10
-219.386127693225
 20
191.682389580974
 42
0.08960254362884
 10
-219.386127693225
 20
190.882389580974
 42
0.08960254362884
  0
LWPOLYLINE
  5
252
330
1F
100
AcDbEntity
  8
Sichtbare_Kanten_TC_020513_DIN_
  6
Continuous
 62
     7
100
AcDbPolyline
 90
        2
 70
     0
 43
0.5
 10
-214.957809728128
 20
190.882389580974
 42
0.08960254362888
 10
-214.957809728128
 20
191.682389580974
 42
0.08960254362888
  0
LWPOLYLINE
  5
253
330
1F
100
AcDbEntity
  8
Sichtbare_Kanten_TC_020513_DIN_
  6
Continuous
 62
     7
100
AcDbPolyline
 90
        2
 70
     0
 43
0.5
 10
-214.957809728128
 20
191.682389580974
 42
0.83553169152773
 10
-219.386127693225
 20
191.682389580974
 42
0.83553169152773
  0
LWPOLYLINE
  5
254
330
1F
100
AcDbEntity
  8
Sichtbare_Kanten_TC_020513_DIN_
  6
Continuous
 62
     7
100
AcDbPolyline
 90
        2
 70
     0
 43
0.5
 10
-219.386127693225
 20
190.882389580974
 42
0.83553169152772
 10
-214.957809728128
 20
190.882389580974
 42
0.83553169152772
  0
LWPOLYLINE
  5
255
330
1F
100
AcDbEntity
  8
Sichtbare_Kanten_TC_020513_DIN_
  6
Continuous
 62
     7
100
AcDbPolyline
 90
        2
 70
     0
 43
0.5
 10
-208.671968710674
 20
191.282389580974
 42
1.0
 10
-225.671968710674
 20
191.282389580974
 42
1.0
  0
LWPOLYLINE
  5
256
330
1F
100
AcDbEntity
  8
Sichtbare_Kanten_TC_020513_DIN_
  6
Continuous
 62
     7
100
AcDbPolyline
 90
        2
 70
     0
 43
0.5
 10
-177.671968710667
 20
277.782389580974
 42
0.4142135623731
 10
-180.671968710667
 20
280.782389580974
 42
0.4142135623731
  0
LWPOLYLINE
  5
257
330
1F
100
AcDbEntity
  8
Sichtbare_Kanten_TC_020513_DIN_
  6
Continuous
 62
     7
100
AcDbPolyline
 90
        2
 70
     0
 43
0.5
 10
-253.671968710667
 20
280.782389580974
 42
0.4142135623731
 10
-256.671968710667
 20
277.782389580974
 42
0.4142135623731
  0
LWPOLYLINE
  5
258
330
1F
100
AcDbEntity
  8
Sichtbare_Kanten_TC_020513_DIN_
  6
Continuous
 62
     7
100
AcDbPolyline
 90
        2
 70
     1
 43
0.5
 10
-221.171968710676
 20
191.282389580974
 42
1.0
 10
-213.171968710676
 20
191.282389580974
 42
1.0
  0
SPLINE
  5
259
330
1F
100
AcDbEntity
  8
Sichtbare_Kanten_TC_020513_DIN_
  6
Continuous
 62
     7
100
AcDbSpline
210
0.0
220
0.0
230
1.0
 70
     8
 71
     3
 72
    11
 73
     7
 74
     5
 42
0.000000001
 43
0.0000000001
 44
0.00000001
 40
0.0
 40
0.0
 40
0.0
 40
0.0
 40
1.153064000907307
 40
2.306991260436071
 40
3.235832984243517
 40
4.163975938109257
 40
4.163975938109257
 40
4.163975938109257
 40
4.163975938109257
 10
-439.1177643734999
 20
265.514440388543
 30
0.0
 10
-439.5030071304562
 20
265.4780680306017
 30
0.0
 10
-440.2737810596342
 20
265.4052960692895
 30
0.0
 10
-441.2666442105119
 20
264.9445503585448
 30
0.0
 10
-442.1106487730337
 20
264.3990660292861
 30
0.0
 10
-442.5747158022949
 20
263.9878968275403
 30
0.0
 10
-442.806661999676
 20
263.782389580974
 30
0.0
 11
-439.1177643734999
 21
265.514440388543
 31
0.0
 11
-440.2577766936673
 21
265.3414418238945
 31
0.0
 11
-441.3187543033328
 21
264.8877077193217
 31
0.0
 11
-442.0967154994971
 21
264.3802401558677
 31
0.0
 11
-442.806661999676
 21
263.782389580974
 31
0.0
  0
SPLINE
  5
25A
330
1F
100
AcDbEntity
  8
Sichtbare_Kanten_TC_020513_DIN_
  6
Continuous
 62
     7
100
AcDbSpline
210
0.0
220
0.0
230
1.0
 70
     8
 71
     3
 72
    11
 73
     7
 74
     5
 42
0.000000001
 43
0.0000000001
 44
0.00000001
 40
0.0
 40
0.0
 40
0.0
 40
0.0
 40
1.324027585460401
 40
2.647843263428437
 40
3.407585834243463
 40
4.16503151199434
 40
4.16503151199434
 40
4.16503151199434
 40
4.16503151199434
 10
-347.037279110175
 20
263.782389580974
 30
0.0
 10
-347.3719683845265
 20
264.0717146479861
 30
0.0
 10
-348.0412933761302
 20
264.6503184641408
 30
0.0
 10
-349.0561430602183
 20
265.1846607145258
 30
0.0
 10
-349.966873258962
 20
265.4672021234102
 30
0.0
 10
-350.4733311546605
 20
265.49871020514
 30
0.0
 10
-350.726176736352
 20
265.514440388543
 30
0.0
 11
-347.037279110175
 21
263.782389580974
 31
0.0
 11
-348.0711661099019
 21
264.6095091104556
 31
0.0
 11
-349.2432671217901
 21
265.2248684963353
 31
0.0
 11
-349.9726493950063
 21
265.4374955804906
 31
0.0
 11
-350.726176736352
 21
265.514440388543
 31
0.0
  0
SPLINE
  5
25B
330
1F
100
AcDbEntity
  8
Sichtbare_Kanten_TC_020513_DIN_
  6
Continuous
 62
     7
100
AcDbSpline
210
0.0
220
0.0
230
1.0
 70
     8
 71
     3
 72
    11
 73
     7
 74
     5
 42
0.000000001
 43
0.0000000001
 44
0.00000001
 40
0.0
 40
0.0
 40
0.0
 40
0.0
 40
1.11670964873699
 40
2.233112558991034
 40
2.941252136086081
 40
3.647819348644937
 40
3.647819348644937
 40
3.647819348644937
 40
3.647819348644937
 10
-450.496802844746
 20
221.782389580974
 30
0.0
 10
-450.2644840990455
 20
221.4890689567922
 30
0.0
 10
-449.7999104101125
 20
220.9025082882501
 30
0.0
 10
-448.9583250475133
 20
220.3624148639062
 30
0.0
 10
-448.1508681228183
 20
220.0920293770032
 30
0.0
 10
-447.6782325026416
 20
220.0642253356243
 30
0.0
 10
-447.442177345286
 20
220.050338773405
 30
0.0
 11
-450.496802844746
 21
221.782389580974
 31
0.0
 11
-449.7562369961778
 21
220.9465650394324
 31
0.0
 11
-448.8190465486165
 21
220.339910665612
 31
0.0
 11
-448.14502322621
 21
220.1227604304304
 31
0.0
 11
-447.442177345286
 21
220.050338773405
 31
0.0
  0
SPLINE
  5
25C
330
1F
100
AcDbEntity
  8
Sichtbare_Kanten_TC_020513_DIN_
  6
Continuous
 62
     7
100
AcDbSpline
210
0.0
220
0.0
230
1.0
 70
     8
 71
     3
 72
    11
 73
     7
 74
     5
 42
0.000000001
 43
0.0000000001
 44
0.00000001
 40
0.0
 40
0.0
 40
0.0
 40
0.0
 40
1.046866339480318
 40
2.093815398133197
 40
2.870879885117362
 40
3.64727088666252
 40
3.64727088666252
 40
3.64727088666252
 40
3.64727088666252
 10
-342.4017637645659
 20
220.050338773405
 30
0.0
 10
-342.0510246511917
 20
220.0806272662766
 30
0.0
 10
-341.3495187130683
 20
220.1412066599432
 30
0.0
 10
-340.4838829419955
 20
220.5996134516019
 30
0.0
 10
-339.8199926135636
 20
221.1635369870646
 30
0.0
 10
-339.5047108150635
 20
221.5761650101404
 30
0.0
 10
-339.347138265105
 20
221.782389580974
 30
0.0
 11
-342.4017637645659
 21
220.050338773405
 31
0.0
 11
-341.3670882466764
 21
220.2096363208636
 31
0.0
 11
-340.4302815727574
 21
220.6770714426256
 31
0.0
 11
-339.8401681948142
 21
221.1826359004658
 31
0.0
 11
-339.347138265105
 21
221.782389580974
 31
0.0
  0
ARC
  5
25D
102
{ACAD_REACTORS
330
2BD
102
}
330
1F
100
AcDbEntity
  8
1
  6
Continuous
 62
     7
100
AcDbCircle
 10
-36.64739862251464
 20
25.66666666666652
 30
0.0
 40
0.3333333333333995
100
AcDbArc
 50
209.999999999964
 51
330.0000000000195
  0
ARC
  5
25E
102
{ACAD_REACTORS
330
2BE
102
}
330
1F
100
AcDbEntity
  8
1
  6
Continuous
 62
     7
100
AcDbCircle
 10
-41.31406528918138
 20
20.5400422960654
 30
0.0
 40
1.333333333333265
100
AcDbArc
 50
180.0000000000104
 51
240.0183606311573
  0
ARC
  5
25F
330
1F
100
AcDbEntity
  8
1
  6
Continuous
 62
     7
100
AcDbCircle
 10
-53.31369502163444
 20
25.0
 30
0.0
 40
0.333333333333221
100
AcDbArc
 50
119.9816393688866
 51
240.0183606311338
  0
ARC
  5
260
330
1F
100
AcDbEntity
  8
1
  6
Continuous
 62
     7
100
AcDbCircle
 10
-19.98110222339483
 20
25.0
 30
0.0
 40
0.3333333333333207
100
AcDbArc
 50
299.9816393688345
 51
60.0183606311451
  0
ARC
  5
261
102
{ACAD_REACTORS
330
2C0
102
}
330
1F
100
AcDbEntity
  8
1
  6
Continuous
 62
     7
100
AcDbCircle
 10
-31.31406528918138
 20
29.84500032033474
 30
0.0
 40
0.6666666666667498
100
AcDbArc
 50
60.01836063114941
 51
180.0
  0
ARC
  5
262
102
{ACAD_REACTORS
330
2C0
102
}
330
1F
100
AcDbEntity
  8
1
  6
Continuous
 62
     7
100
AcDbCircle
 10
-31.31406528918138
 20
20.15499967966526
 30
0.0
 40
0.6666666666665009
100
AcDbArc
 50
180.0
 51
299.9816393688506
  0
MTEXT
  5
264
330
1F
100
AcDbEntity
  8
1
 62
     7
100
AcDbMText
 10
-376.0
 20
14.99999999999974
 30
0.0
 40
6.0
 41
0.0
 71
     4
 72
     1
  1
Sign.
  7
CONVERTER_11
 73
     1
 44
1.32052821128451
  0
MTEXT
  5
265
330
1F
100
AcDbEntity
  8
1
 62
     7
100
AcDbMText
 10
-354.8
 20
24.99999999999974
 30
0.0
 40
6.0
 41
0.0
 71
     4
 72
     1
  1
14/12/06
  7
CONVERTER_11
 73
     1
 44
1.32052821128451
  0
MTEXT
  5
266
330
1F
100
AcDbEntity
  8
1
 62
     7
100
AcDbMText
 10
-376.0
 20
24.99999999999974
 30
0.0
 40
6.0
 41
0.0
 71
     4
 72
     1
  1
Date
  7
CONVERTER_11
 73
     1
 44
1.32052821128451
  0
MTEXT
  5
268
330
1F
100
AcDbEntity
  8
1
 62
     7
100
AcDbMText
 10
-348.0
 20
34.99999999999988
 30
0.0
 40
5.0
 41
0.0
 71
     5
 72
     1
  1
dimensions in mm
  7
CONVERTER_12
 73
     1
 44
0.60024009603842
  0
MTEXT
  5
269
330
1F
100
AcDbEntity
  8
1
 62
     7
100
AcDbMText
 10
-291.0000000000006
 20
388.0000000000002
 30
0.0
 40
8.0
 41
0.0
 71
     5
 72
     1
  1
Diritti riservati      All rights reserved
  7
CONVERTER_11
 73
     1
 44
1.32052821128451
  0
MTEXT
  5
26A
330
1F
100
AcDbEntity
  8
1
 62
     7
100
AcDbMText
 10
-305.4473986225146
 20
25.0
 30
0.0
 40
9.0
 41
0.0
 71
     4
 72
     1
  1
MHO 48 L40\Phood side entry M40
  7
CONVERTER_11
 73
     1
 44
0.90036014405762
  0
MTEXT
  5
26B
330
1F
100
AcDbEntity
  8
1
 62
     7
100
AcDbMText
 10
-80.64739862251461
 20
32.52127884151196
 30
0.0
 40
6.0
 41
0.0
 71
     5
 72
     1
  1
Scale
  7
CONVERTER_11
 73
     1
 44
1.32052821128451
  0
MTEXT
  5
26C
330
1F
100
AcDbEntity
  8
1
 62
     7
100
AcDbMText
 10
-80.64739862251461
 20
20.1212788415121
 30
0.0
 40
9.0
 41
0.0
 71
     5
 72
     1
  1
1:2
  7
CONVERTER_11
 73
     1
 44
1.32052821128451
  0
DIMENSION
  5
278
330
1F
100
AcDbEntity
  8
1
100
AcDbDimension
  2
*D1
 10
-306.0628773024312
 20
271.4391002395413
 30
0.0
 11
-295.5752554970627
 21
253.0268817727851
 31
0.0
 70
    33
  1
<>
 71
     5
 42
-1.0
 53
-79.62415507994852
  3
ME10_DIM_10
100
AcDbAlignedDimension
 13
-318.5316482731463
 23
228.4911113404108
 33
0.0
 14
-325.7358270562265
 24
267.8370108480012
 34
0.0
  0
DIMENSION
  5
285
330
1F
100
AcDbEntity
  8
1
100
AcDbDimension
  2
*D2
 10
-147.6719687106699
 20
173.782389580974
 30
0.0
 11
-154.6719687106699
 21
178.282389580974
 31
0.0
 70
    32
  1
<>
 71
     5
 42
-1.0
 53
90.0
  3
ME10_DIM_11
100
AcDbAlignedDimension
 13
-172.1719687106699
 23
182.782389580974
 33
0.0
 14
-177.6719687106699
 24
173.782389580974
 34
0.0
 50
90.0
100
AcDbRotatedDimension
  0
DIMENSION
  5
290
330
1F
100
AcDbEntity
  8
1
100
AcDbDimension
  2
*D3
 10
-470.171970554926
 20
133.782389580974
 30
0.0
 11
-394.921970554926
 21
141.082389580974
 31
0.0
 70
    32
  1
<>
 71
     5
 42
-1.0
 53
0.00013888888889
  3
ME10_DIM_12
100
AcDbAlignedDimension
 13
-319.671970554926
 23
189.032389580974
 33
0.0
 14
-470.171970554926
 24
189.032389580974
 34
0.0
100
AcDbRotatedDimension
  0
DIMENSION
  5
29B
330
1F
100
AcDbEntity
  8
1
100
AcDbDimension
  2
*D4
 10
-147.6719687106699
 20
182.782389580974
 30
0.0
 11
-154.6719687106699
 21
227.7365180213409
 31
0.0
 70
    32
  1
<>
 71
     5
 42
-1.0
 53
90.0
  3
ME10_DIM_13
100
AcDbAlignedDimension
 13
-180.671968710667
 23
280.782389580974
 33
0.0
 14
-172.1719687106699
 24
182.782389580974
 34
0.0
 50
90.0
100
AcDbRotatedDimension
  0
DIMENSION
  5
2A6
330
1F
100
AcDbEntity
  8
1
100
AcDbDimension
  2
*D5
 10
-262.1719687106699
 20
133.782389580974
 30
0.0
 11
-217.1719687106699
 21
140.782389580974
 31
0.0
 70
    32
  1
<>
 71
     5
 42
-1.0
 53
0.00013888888889
  3
ME10_DIM_14
100
AcDbAlignedDimension
 13
-172.1719687106699
 23
182.782389580974
 33
0.0
 14
-262.1719687106699
 24
182.782389580974
 34
0.0
100
AcDbRotatedDimension
  0
DIMENSION
  5
2B1
330
1F
100
AcDbEntity
  8
1
100
AcDbDimension
  2
*D6
 10
-256.6719687106699
 20
153.782389580974
 30
0.0
 11
-217.1719687106699
 21
160.782389580974
 31
0.0
 70
    32
  1
<>
 71
     5
 42
-1.0
 53
0.00013888888889
  3
ME10_DIM_15
100
AcDbAlignedDimension
 13
-177.6719687106699
 23
173.782389580974
 33
0.0
 14
-256.6719687106699
 24
173.782389580974
 34
0.0
100
AcDbRotatedDimension
  0
DIMENSION
  5
2BC
330
1F
100
AcDbEntity
  8
1
100
AcDbDimension
  2
*D7
 10
-455.421970554926
 20
153.782389580974
 30
0.0
 11
-394.921970554926
 21
160.782389580974
 31
0.0
 70
    32
  1
<>
 71
     5
 42
-1.0
 53
0.00013888888889
  3
ME10_DIM_16
100
AcDbAlignedDimension
 13
-334.421970554926
 23
173.782389580974
 33
0.0
 14
-455.421970554926
 24
173.782389580974
 34
0.0
100
AcDbRotatedDimension
  0
HATCH
  5
2BD
330
1F
100
AcDbEntity
  8
1
  6
Continuous
 62
     7
100
AcDbHatch
 10
0.0
 20
0.0
 30
0.0
210
0.0
220
0.0
230
1.0
  2
SOLID
 70
     1
 71
     1
 91
        1
 92
        1
 93
       16
 72
     2
 10
-33.843997714132
 20
31.46243462406914
 40
0.5299324249506228
 50
210.0000000000258
 51
360.0
 73
     0
 72
     1
 10
-33.31406528918138
 20
31.46243462406914
 11
-33.31406528918138
 21
18.61653814120359
 72
     2
 10
-33.98073195584788
 20
18.61653814120359
 40
0.6666666666667638
 50
0.0
 51
180.0
 73
     0
 72
     1
 10
-34.64739862251464
 20
18.61653814120359
 11
-34.64739862251464
 21
25.0
 72
     1
 10
-34.64739862251464
 20
25.0
 11
-34.64739862251464
 21
28.46410161513768
 72
     1
 10
-34.64739862251464
 20
28.46410161513768
 11
-36.35872348791986
 21
25.5
 72
     2
 10
-36.64739862251464
 20
25.66666666666652
 40
0.3333333333333995
 50
29.99999999998053
 51
150.000000000036
 73
     0
 72
     1
 10
-36.93607375710962
 20
25.5
 11
-38.64739862251464
 21
28.46410161513768
 72
     1
 10
-38.64739862251464
 20
28.46410161513768
 11
-38.64739862251464
 21
25.0
 72
     1
 10
-38.64739862251464
 20
25.0
 11
-38.64739862251464
 21
21.69517014526582
 72
     2
 10
-39.31406528918138
 20
21.69517014526582
 40
0.6666666666667425
 50
0.0
 51
180.0
 73
     0
 72
     1
 10
-39.98073195584812
 20
21.69517014526582
 11
-39.98073195584812
 21
25.0
 72
     1
 10
-39.98073195584812
 20
25.0
 11
-39.98073195584812
 21
31.46243462406914
 72
     2
 10
-39.45079953089748
 20
31.46243462406914
 40
0.5299324249506568
 50
180.0
 51
329.9999999999862
 73
     0
 72
     1
 10
-38.99186458860118
 20
31.72740083654458
 11
-36.64739862251464
 21
27.66666666666652
 72
     1
 10
-36.64739862251464
 20
27.66666666666652
 11
-34.30293265642808
 21
31.72740083654458
 97
       16
330
6B
330
227
330
6A
330
6C
330
228
330
6D
330
65
330
64
330
25D
330
63
330
62
330
6E
330
229
330
6F
330
22A
330
70
 75
     0
 76
     1
 98
        1
 10
0.0
 20
0.0
  0
HATCH
  5
2BE
330
1F
100
AcDbEntity
  8
1
  6
Continuous
 62
     7
100
AcDbHatch
 10
0.0
 20
0.0
 30
0.0
210
0.0
220
0.0
230
1.0
  2
SOLID
 70
     1
 71
     1
 91
        1
 92
        1
 93
        7
 72
     2
 10
-41.98073195584812
 20
29.84500032033474
 40
0.6666666666667425
 50
0.0
 51
180.0
 73
     1
 72
     1
 10
-42.64739862251464
 20
29.84500032033474
 11
-42.64739862251464
 21
20.54004229606516
 72
     2
 10
-41.31406528918138
 20
20.5400422960654
 40
1.333333333333265
 50
180.0000000000104
 51
240.0183606311573
 73
     1
 72
     1
 10
-41.98036189383404
 20
19.38512818133381
 11
-37.6472135915078
 21
16.88523492999161
 72
     2
 10
-37.31406528918138
 20
17.4626919873574
 40
0.6666666666667316
 50
240.0183606311502
 51
420.0183606311505
 73
     1
 72
     1
 10
-36.98091698685496
 20
18.04014904472319
 11
-41.31406528918138
 21
20.5400422960654
 72
     1
 10
-41.31406528918138
 20
20.5400422960654
 11
-41.31406528918138
 21
29.84500032033474
 97
        7
330
22B
330
71
330
25E
330
74
330
22C
330
73
330
72
 75
     0
 76
     1
 98
        1
 10
0.0
 20
0.0
  0
HATCH
  5
2BF
330
1F
100
AcDbEntity
  8
1
  6
Continuous
 62
     7
100
AcDbHatch
 10
0.0
 20
0.0
 30
0.0
210
0.0
220
0.0
230
1.0
  2
SOLID
 70
     1
 71
     1
 91
        1
 92
        1
 93
        5
 72
     2
 10
-44.64739862251464
 20
28.30653878187332
 40
0.6666666666665222
 50
0.0
 51
180.0
 73
     1
 72
     1
 10
-45.31406528918138
 20
28.30653878187332
 11
-45.31406528918138
 21
21.69346121812646
 72
     2
 10
-44.64739862251464
 20
21.69346121812646
 40
0.6666666666667354
 50
180.0
 51
360.0
 73
     1
 72
     1
 10
-43.98073195584812
 20
21.69346121812646
 11
-43.98073195584812
 21
22.0785038345266
 72
     1
 10
-43.98073195584812
 20
22.0785038345266
 11
-43.98073195584812
 21
28.30653878187332
 97
        5
330
22D
330
77
330
22E
330
76
330
75
 75
     0
 76
     1
 98
        1
 10
0.0
 20
0.0
  0
HATCH
  5
2C0
330
1F
100
AcDbEntity
  8
1
  6
Continuous
 62
     7
100
AcDbHatch
 10
0.0
 20
0.0
 30
0.0
210
0.0
220
0.0
230
1.0
  2
SOLID
 70
     1
 71
     1
 91
        1
 92
        1
 93
       14
 72
     2
 10
-31.31406528918138
 20
29.84500032033474
 40
0.6666666666667498
 50
60.01836063114941
 51
180.0
 73
     1
 72
     1
 10
-31.98073195584788
 20
29.84500032033474
 11
-31.98073195584788
 21
20.15499967966526
 72
     2
 10
-31.31406528918138
 20
20.15499967966526
 40
0.6666666666665009
 50
180.0
 51
299.9816393688506
 73
     1
 72
     1
 10
-30.98091698685494
 20
19.57754262229946
 11
-28.31425032018842
 21
21.11600416076066
 72
     2
 10
-28.64739862251462
 20
21.69346121812646
 40
0.666666666666629
 50
299.9816393688326
 51
479.9816393688413
 73
     1
 72
     1
 10
-28.98054692484106
 20
22.27091827549248
 11
-30.64739862251462
 21
21.30927306529588
 72
     1
 10
-30.64739862251462
 20
21.30927306529588
 11
-30.64739862251462
 21
24.33333333333326
 72
     1
 10
-30.64739862251462
 20
24.33333333333326
 11
-28.64739862251462
 21
24.33333333333326
 72
     2
 10
-28.64739862251462
 20
25.0
 40
0.6666666666667389
 50
270.0
 51
450.0
 73
     1
 72
     1
 10
-28.64739862251462
 20
25.66666666666652
 11
-30.64739862251462
 21
25.66666666666652
 72
     1
 10
-30.64739862251462
 20
25.66666666666652
 11
-30.64739862251462
 21
28.6907269347039
 72
     1
 10
-30.64739862251462
 20
28.6907269347039
 11
-28.98054692484106
 21
27.72908172450752
 72
     2
 10
-28.64739862251462
 20
28.30653878187332
 40
0.6666666666667546
 50
240.0183606311493
 51
420.0183606311572
 73
     1
 72
     1
 10
-28.31425032018842
 20
28.88399583923888
 11
-30.98091698685494
 21
30.42245737770054
 97
       14
330
22F
330
79
330
7A
330
7B
330
230
330
7C
330
7D
330
7E
330
231
330
7F
330
262
330
61
330
261
330
78
 75
     0
 76
     1
 98
        1
 10
0.0
 20
0.0
  0
ENDSEC
  0
SECTION
  2
OBJECTS
  0
DICTIONARY
  5
C
330
0
100
AcDbDictionary
281
     1
  3
ACAD_GROUP
350
D
  3
ACAD_LAYOUT
350
1A
  3
ACAD_MATERIAL
350
3B
  3
ACAD_MLEADERSTYLE
350
2C3
  3
ACAD_MLINESTYLE
350
17
  3
ACAD_PLOTSETTINGS
350
19
  3
ACAD_PLOTSTYLENAME
350
E
  3
ACAD_VISUALSTYLE
350
2A
  3
AcDbVariableDictionary
350
2C1
  0
DICTIONARY
  5
D
102
{ACAD_REACTORS
330
C
102
}
330
C
100
AcDbDictionary
281
     1
  0
DICTIONARY
  5
1A
102
{ACAD_REACTORS
330
C
102
}
330
C
100
AcDbDictionary
281
     1
  3
Layout1
350
1E
  3
Layout2
350
26
  3
Model
350
22
  0
DICTIONARY
  5
3B
102
{ACAD_REACTORS
330
C
102
}
330
C
100
AcDbDictionary
281
     1
  3
ByBlock
350
3D
  3
ByLayer
350
3C
  3
Global
350
3E
  0
DICTIONARY
  5
2C3
102
{ACAD_REACTORS
330
C
102
}
330
C
100
AcDbDictionary
281
     1
  0
DICTIONARY
  5
17
102
{ACAD_REACTORS
330
C
102
}
330
C
100
AcDbDictionary
281
     1
  3
Standard
350
18
  0
DICTIONARY
  5
19
102
{ACAD_REACTORS
330
C
102
}
330
C
100
AcDbDictionary
281
     1
  0
ACDBDICTIONARYWDFLT
  5
E
102
{ACAD_REACTORS
330
C
102
}
330
C
100
AcDbDictionary
281
     1
  3
Normal
350
F
100
AcDbDictionaryWithDefault
340
F
  0
DICTIONARY
  5
2A
102
{ACAD_REACTORS
330
C
102
}
330
C
100
AcDbDictionary
281
     1
  3
2dWireframe
350
2F
  3
3D Hidden
350
31
  3
3dWireframe
350
30
  3
Basic
350
32
  3
Brighten
350
36
  3
ColorChange
350
3A
  3
Conceptual
350
34
  3
Dim
350
35
  3
Facepattern
350
39
  3
Flat
350
2B
  3
FlatWithEdges
350
2C
  3
Gouraud
350
2D
  3
GouraudWithEdges
350
2E
  3
Linepattern
350
38
  3
Realistic
350
33
  3
Thicken
350
37
  0
DICTIONARY
  5
2C1
102
{ACAD_REACTORS
330
C
102
}
330
C
100
AcDbDictionary
281
     1
  3
DIMASSOC
350
2C4
  3
HIDETEXT
350
2C5
  0
LAYOUT
  5
1E
102
{ACAD_REACTORS
330
1A
102
}
330
1A
100
AcDbPlotSettings
  1

  2
none_device
  4

  6

 40
0.0
 41
0.0
 42
0.0
 43
0.0
 44
0.0
 45
0.0
 46
0.0
 47
0.0
 48
0.0
 49
0.0
140
0.0
141
0.0
142
1.0
143
1.0
 70
   688
 72
     0
 73
     0
 74
     5
  7

 75
    16
147
1.0
148
0.0
149
0.0
100
AcDbLayout
  1
Layout1
 70
     1
 71
     1
 10
0.0
 20
0.0
 11
12.0
 21
9.0
 12
0.0
 22
0.0
 32
0.0
 14
1.00000000000000E+20
 24
1.00000000000000E+20
 34
1.00000000000000E+20
 15
-1.00000000000000E+20
 25
-1.00000000000000E+20
 35
-1.00000000000000E+20
146
0.0
 13
0.0
 23
0.0
 33
0.0
 16
1.0
 26
0.0
 36
0.0
 17
0.0
 27
1.0
 37
0.0
 76
     0
330
1B
  0
LAYOUT
  5
26
102
{ACAD_REACTORS
330
1A
102
}
330
1A
100
AcDbPlotSettings
  1

  2
none_device
  4

  6

 40
0.0
 41
0.0
 42
0.0
 43
0.0
 44
0.0
 45
0.0
 46
0.0
 47
0.0
 48
0.0
 49
0.0
140
0.0
141
0.0
142
1.0
143
1.0
 70
   688
 72
     0
 73
     0
 74
     5
  7

 75
    16
147
1.0
148
0.0
149
0.0
100
AcDbLayout
  1
Layout2
 70
     1
 71
     2
 10
0.0
 20
0.0
 11
0.0
 21
0.0
 12
0.0
 22
0.0
 32
0.0
 14
0.0
 24
0.0
 34
0.0
 15
0.0
 25
0.0
 35
0.0
146
0.0
 13
0.0
 23
0.0
 33
0.0
 16
1.0
 26
0.0
 36
0.0
 17
0.0
 27
1.0
 37
0.0
 76
     0
330
23
  0
LAYOUT
  5
22
102
{ACAD_REACTORS
330
1A
102
}
330
1A
100
AcDbPlotSettings
  1

  2
none_device
  4

  6

 40
0.0
 41
0.0
 42
0.0
 43
0.0
 44
0.0
 45
0.0
 46
0.0
 47
0.0
 48
0.0
 49
0.0
140
0.0
141
0.0
142
1.0
143
1.0
 70
  1712
 72
     0
 73
     0
 74
     0
  7

 75
     0
147
1.0
148
0.0
149
0.0
100
AcDbLayout
  1
Model
 70
     1
 71
     0
 10
0.0
 20
0.0
 11
12.0
 21
9.0
 12
0.0
 22
0.0
 32
0.0
 14
-594.0000000000002
 24
0.0
 34
0.0
 15
0.0
 25
420.0000000000002
 35
0.0
146
0.0
 13
0.0
 23
0.0
 33
0.0
 16
1.0
 26
0.0
 36
0.0
 17
0.0
 27
1.0
 37
0.0
 76
     0
330
1F
331
29
  0
MATERIAL
  5
3D
102
{ACAD_REACTORS
330
3B
102
}
102
{ACAD_XDICTIONARY
360
2E8
102
}
330
3B
100
AcDbMaterial
  1
ByBlock
  0
MATERIAL
  5
3C
102
{ACAD_REACTORS
330
3B
102
}
102
{ACAD_XDICTIONARY
360
2E6
102
}
330
3B
100
AcDbMaterial
  1
ByLayer
  0
MATERIAL
  5
3E
102
{ACAD_REACTORS
330
3B
102
}
102
{ACAD_XDICTIONARY
360
2EA
102
}
330
3B
100
AcDbMaterial
  1
Global
  0
MLINESTYLE
  5
18
102
{ACAD_REACTORS
330
17
102
}
330
17
100
AcDbMlineStyle
  2
Standard
 70
     0
  3

 62
   256
 51
90.0
 52
90.0
 71
     2
 49
0.5
 62
   256
  6
BYLAYER
 49
-0.5
 62
   256
  6
BYLAYER
  0
ACDBPLACEHOLDER
  5
F
102
{ACAD_REACTORS
330
E
102
}
330
E
  0
VISUALSTYLE
  5
2F
102
{ACAD_REACTORS
330
2A
102
}
102
{ACAD_XDICTIONARY
360
2CE
102
}
330
2A
100
AcDbVisualStyle
  2
2dWireframe
 70
     4
 71
     0
 72
     2
 73
     0
 90
        0
 40
-0.6
 41
-30.0
 62
     5
 63
     7
 74
     1
 91
        4
 64
     7
 65
   257
 75
     1
175
     1
 42
1.0
 92
        0
 66
   257
 43
1.0
 76
     1
 77
     6
 78
     2
 67
     7
 79
     5
170
     0
171
     0
290
     0
174
     0
 93
        1
 44
0.0
173
     0
291
     0
 45
0.0
1001
ACAD
1000
AcDbSavedByObjectVersion
1070
     0
  0
VISUALSTYLE
  5
31
102
{ACAD_REACTORS
330
2A
102
}
102
{ACAD_XDICTIONARY
360
2D2
102
}
330
2A
100
AcDbVisualStyle
  2
3D Hidden
 70
     6
 71
     1
 72
     2
 73
     2
 90
        0
 40
-0.6
 41
-30.0
 62
     5
 63
     7
 74
     2
 91
        2
 64
     7
 65
   257
 75
     2
175
     1
 42
40.0
 92
        0
 66
   257
 43
1.0
 76
     1
 77
     6
 78
     2
 67
     7
 79
     3
170
     0
171
     0
290
     0
174
     0
 93
        1
 44
0.0
173
     0
291
     0
 45
0.0
1001
ACAD
1000
AcDbSavedByObjectVersion
1070
     0
  0
VISUALSTYLE
  5
30
102
{ACAD_REACTORS
330
2A
102
}
102
{ACAD_XDICTIONARY
360
2D0
102
}
330
2A
100
AcDbVisualStyle
  2
3dWireframe
 70
     5
 71
     0
 72
     2
 73
     0
 90
        0
 40
-0.6
 41
-30.0
 62
     5
 63
     7
 74
     1
 91
        4
 64
     7
 65
   257
 75
     1
175
     1
 42
1.0
 92
        0
 66
   257
 43
1.0
 76
     1
 77
     6
 78
     2
 67
     7
 79
     5
170
     0
171
     0
290
     0
174
     0
 93
        1
 44
0.0
173
     0
291
     0
 45
0.0
1001
ACAD
1000
AcDbSavedByObjectVersion
1070
     0
  0
VISUALSTYLE
  5
32
102
{ACAD_REACTORS
330
2A
102
}
102
{ACAD_XDICTIONARY
360
2D4
102
}
330
2A
100
AcDbVisualStyle
  2
Basic
 70
     7
 71
     1
 72
     0
 73
     1
 90
        0
 40
-0.6
 41
-30.0
 62
     5
 63
     7
 74
     0
 91
        4
 64
     7
 65
   257
 75
     1
175
     1
 42
1.0
 92
        8
 66
     7
 43
1.0
 76
     1
 77
     6
 78
     2
 67
     7
 79
     5
170
     0
171
     0
290
     0
174
     0
 93
        1
 44
0.0
173
     0
291
     1
 45
0.0
1001
ACAD
1000
AcDbSavedByObjectVersion
1070
     0
  0
VISUALSTYLE
  5
36
102
{ACAD_REACTORS
330
2A
102
}
102
{ACAD_XDICTIONARY
360
2DC
102
}
330
2A
100
AcDbVisualStyle
  2
Brighten
 70
    12
 71
     2
 72
     2
 73
     0
 90
        0
 40
-0.6
 41
-30.0
 62
     5
 63
     7
 74
     1
 91
        4
 64
     7
 65
   257
 75
     1
175
     1
 42
1.0
 92
        8
 66
     7
 43
1.0
 76
     1
 77
     6
 78
     2
 67
     7
 79
     5
170
     0
171
     0
290
     0
174
     0
 93
        1
 44
50.0
173
     0
291
     1
 45
0.0
1001
ACAD
1000
AcDbSavedByObjectVersion
1070
     0
  0
VISUALSTYLE
  5
3A
102
{ACAD_REACTORS
330
2A
102
}
102
{ACAD_XDICTIONARY
360
2E4
102
}
330
2A
100
AcDbVisualStyle
  2
ColorChange
 70
    16
 71
     2
 72
     2
 73
     3
 90
        0
 40
-0.6
 41
-30.0
 62
     5
 63
     8
 74
     1
 91
        4
 64
     7
 65
   257
 75
     1
175
     1
 42
1.0
 92
        8
 66
     8
 43
1.0
 76
     1
 77
     6
 78
     2
 67
     7
 79
     5
170
     0
171
     0
290
     0
174
     0
 93
        1
 44
0.0
173
     0
291
     1
 45
0.0
1001
ACAD
1000
AcDbSavedByObjectVersion
1070
     0
  0
VISUALSTYLE
  5
34
102
{ACAD_REACTORS
330
2A
102
}
102
{ACAD_XDICTIONARY
360
2D8
102
}
330
2A
100
AcDbVisualStyle
  2
Conceptual
 70
     9
 71
     3
 72
     2
 73
     0
 90
        0
 40
-0.6
 41
-30.0
 62
     5
 63
     7
 74
     2
 91
        2
 64
     7
 65
   257
 75
     1
175
     1
 42
40.0
 92
        8
 66
     7
 43
1.0
 76
     1
 77
     6
 78
     2
 67
     7
 79
     3
170
     0
171
     0
290
     0
174
     0
 93
        1
 44
0.0
173
     0
291
     0
 45
0.0
1001
ACAD
1000
AcDbSavedByObjectVersion
1070
     0
  0
VISUALSTYLE
  5
35
102
{ACAD_REACTORS
330
2A
102
}
102
{ACAD_XDICTIONARY
360
2DA
102
}
330
2A
100
AcDbVisualStyle
  2
Dim
 70
    11
 71
     2
 72
     2
 73
     0
 90
        0
 40
-0.6
 41
-30.0
 62
     5
 63
     7
 74
     1
 91
        4
 64
     7
 65
   257
 75
     1
175
     1
 42
1.0
 92
        8
 66
     7
 43
1.0
 76
     1
 77
     6
 78
     2
 67
     7
 79
     5
170
     0
171
     0
290
     0
174
     0
 93
        1
 44
-50.0
173
     0
291
     1
 45
0.0
1001
ACAD
1000
AcDbSavedByObjectVersion
1070
     0
  0
VISUALSTYLE
  5
39
102
{ACAD_REACTORS
330
2A
102
}
102
{ACAD_XDICTIONARY
360
2E2
102
}
330
2A
100
AcDbVisualStyle
  2
Facepattern
 70
    15
 71
     2
 72
     2
 73
     0
 90
        0
 40
-0.6
 41
-30.0
 62
     5
 63
     7
 74
     1
 91
        4
 64
     7
 65
   257
 75
     1
175
     1
 42
1.0
 92
        8
 66
     7
 43
1.0
 76
     1
 77
     6
 78
     2
 67
     7
 79
     5
170
     0
171
     0
290
     0
174
     0
 93
        1
 44
0.0
173
     0
291
     1
 45
0.0
1001
ACAD
1000
AcDbSavedByObjectVersion
1070
     0
  0
VISUALSTYLE
  5
2B
102
{ACAD_REACTORS
330
2A
102
}
102
{ACAD_XDICTIONARY
360
2C6
102
}
330
2A
100
AcDbVisualStyle
  2
Flat
 70
     0
 71
     2
 72
     1
 73
     1
 90
        2
 40
-0.6
 41
30.0
 62
     5
 63
     7
 74
     0
 91
        4
 64
     7
 65
   257
 75
     1
175
     1
 42
1.0
 92
        8
 66
     7
 43
1.0
 76
     1
 77
     6
 78
     2
 67
     7
 79
     5
170
     0
171
     0
290
     0
174
     0
 93
       13
 44
0.0
173
     0
291
     1
 45
0.0
1001
ACAD
1000
AcDbSavedByObjectVersion
1070
     0
  0
VISUALSTYLE
  5
2C
102
{ACAD_REACTORS
330
2A
102
}
102
{ACAD_XDICTIONARY
360
2C8
102
}
330
2A
100
AcDbVisualStyle
  2
FlatWithEdges
 70
     1
 71
     2
 72
     1
 73
     1
 90
        2
 40
-0.6
 41
30.0
 62
     5
 63
     7
 74
     1
 91
        4
 64
     7
 65
   257
 75
     1
175
     1
 42
1.0
 92
        0
 66
   257
 43
1.0
 76
     1
 77
     6
 78
     2
 67
     7
 79
     5
170
     0
171
     0
290
     0
174
     0
 93
       13
 44
0.0
173
     0
291
     1
 45
0.0
1001
ACAD
1000
AcDbSavedByObjectVersion
1070
     0
  0
VISUALSTYLE
  5
2D
102
{ACAD_REACTORS
330
2A
102
}
102
{ACAD_XDICTIONARY
360
2CA
102
}
330
2A
100
AcDbVisualStyle
  2
Gouraud
 70
     2
 71
     2
 72
     2
 73
     1
 90
        2
 40
-0.6
 41
30.0
 62
     5
 63
     7
 74
     0
 91
        4
 64
     7
 65
   257
 75
     1
175
     1
 42
1.0
 92
        0
 66
     7
 43
1.0
 76
     1
 77
     6
 78
     2
 67
     7
 79
     5
170
     0
171
     0
290
     0
174
     0
 93
       13
 44
0.0
173
     0
291
     1
 45
0.0
1001
ACAD
1000
AcDbSavedByObjectVersion
1070
     0
  0
VISUALSTYLE
  5
2E
102
{ACAD_REACTORS
330
2A
102
}
102
{ACAD_XDICTIONARY
360
2CC
102
}
330
2A
100
AcDbVisualStyle
  2
GouraudWithEdges
 70
     3
 71
     2
 72
     2
 73
     1
 90
        2
 40
-0.6
 41
30.0
 62
     5
 63
     7
 74
     1
 91
        4
 64
     7
 65
   257
 75
     1
175
     1
 42
1.0
 92
        0
 66
   257
 43
1.0
 76
     1
 77
     6
 78
     2
 67
     7
 79
     5
170
     0
171
     0
290
     0
174
     0
 93
       13
 44
0.0
173
     0
291
     1
 45
0.0
1001
ACAD
1000
AcDbSavedByObjectVersion
1070
     0
  0
VISUALSTYLE
  5
38
102
{ACAD_REACTORS
330
2A
102
}
102
{ACAD_XDICTIONARY
360
2E0
102
}
330
2A
100
AcDbVisualStyle
  2
Linepattern
 70
    14
 71
     2
 72
     2
 73
     0
 90
        0
 40
-0.6
 41
-30.0
 62
     5
 63
     7
 74
     1
 91
        4
 64
     7
 65
   257
 75
     7
175
     7
 42
1.0
 92
        8
 66
     7
 43
1.0
 76
     1
 77
     6
 78
     2
 67
     7
 79
     5
170
     0
171
     0
290
     0
174
     0
 93
        1
 44
0.0
173
     0
291
     1
 45
0.0
1001
ACAD
1000
AcDbSavedByObjectVersion
1070
     0
  0
VISUALSTYLE
  5
33
102
{ACAD_REACTORS
330
2A
102
}
102
{ACAD_XDICTIONARY
360
2D6
102
}
330
2A
100
AcDbVisualStyle
  2
Realistic
 70
     8
 71
     2
 72
     2
 73
     0
 90
        0
 40
-0.6
 41
-30.0
 62
     5
 63
     7
 74
     1
 91
        0
 64
     7
 65
   257
 75
     1
175
     1
 42
1.0
 92
        8
 66
     8
 43
1.0
 76
     1
 77
     6
 78
     2
 67
     7
 79
     5
170
     0
171
     0
290
     0
174
     0
 93
       13
 44
0.0
173
     0
291
     0
 45
0.0
1001
ACAD
1000
AcDbSavedByObjectVersion
1070
     0
  0
VISUALSTYLE
  5
37
102
{ACAD_REACTORS
330
2A
102
}
102
{ACAD_XDICTIONARY
360
2DE
102
}
330
2A
100
AcDbVisualStyle
  2
Thicken
 70
    13
 71
     2
 72
     2
 73
     0
 90
        0
 40
-0.6
 41
-30.0
 62
     5
 63
     7
 74
     1
 91
        4
 64
     7
 65
   257
 75
     1
175
     1
 42
1.0
 92
       12
 66
     7
 43
1.0
 76
     1
 77
     6
 78
     2
 67
     7
 79
     5
170
     0
171
     0
290
     0
174
     0
 93
        1
 44
0.0
173
     0
291
     1
 45
0.0
1001
ACAD
1000
AcDbSavedByObjectVersion
1070
     0
  0
DICTIONARYVAR
  5
2C4
102
{ACAD_REACTORS
330
2C1
102
}
330
2C1
100
DictionaryVariables
280
     0
  1
2
  0
DICTIONARYVAR
  5
2C5
102
{ACAD_REACTORS
330
2C1
102
}
330
2C1
100
DictionaryVariables
280
     0
  1
1
  0
DICTIONARY
  5
2E8
330
3D
100
AcDbDictionary
280
     1
281
     1
  3
ACAD_XREC_ROUNDTRIP
360
2E9
  0
DICTIONARY
  5
2E6
330
3C
100
AcDbDictionary
280
     1
281
     1
  3
ACAD_XREC_ROUNDTRIP
360
2E7
  0
DICTIONARY
  5
2EA
330
3E
100
AcDbDictionary
280
     1
281
     1
  3
ACAD_XREC_ROUNDTRIP
360
2EB
  0
DICTIONARY
  5
2CE
330
2F
100
AcDbDictionary
280
     1
281
     1
  3
ACAD_XREC_ROUNDTRIP
360
2CF
  0
DICTIONARY
  5
2D2
330
31
100
AcDbDictionary
280
     1
281
     1
  3
ACAD_XREC_ROUNDTRIP
360
2D3
  0
DICTIONARY
  5
2D0
330
30
100
AcDbDictionary
280
     1
281
     1
  3
ACAD_XREC_ROUNDTRIP
360
2D1
  0
DICTIONARY
  5
2D4
330
32
100
AcDbDictionary
280
     1
281
     1
  3
ACAD_XREC_ROUNDTRIP
360
2D5
  0
DICTIONARY
  5
2DC
330
36
100
AcDbDictionary
280
     1
281
     1
  3
ACAD_XREC_ROUNDTRIP
360
2DD
  0
DICTIONARY
  5
2E4
330
3A
100
AcDbDictionary
280
     1
281
     1
  3
ACAD_XREC_ROUNDTRIP
360
2E5
  0
DICTIONARY
  5
2D8
330
34
100
AcDbDictionary
280
     1
281
     1
  3
ACAD_XREC_ROUNDTRIP
360
2D9
  0
DICTIONARY
  5
2DA
330
35
100
AcDbDictionary
280
     1
281
     1
  3
ACAD_XREC_ROUNDTRIP
360
2DB
  0
DICTIONARY
  5
2E2
330
39
100
AcDbDictionary
280
     1
281
     1
  3
ACAD_XREC_ROUNDTRIP
360
2E3
  0
DICTIONARY
  5
2C6
330
2B
100
AcDbDictionary
280
     1
281
     1
  3
ACAD_XREC_ROUNDTRIP
360
2C7
  0
DICTIONARY
  5
2C8
330
2C
100
AcDbDictionary
280
     1
281
     1
  3
ACAD_XREC_ROUNDTRIP
360
2C9
  0
DICTIONARY
  5
2CA
330
2D
100
AcDbDictionary
280
     1
281
     1
  3
ACAD_XREC_ROUNDTRIP
360
2CB
  0
DICTIONARY
  5
2CC
330
2E
100
AcDbDictionary
280
     1
281
     1
  3
ACAD_XREC_ROUNDTRIP
360
2CD
  0
DICTIONARY
  5
2E0
330
38
100
AcDbDictionary
280
     1
281
     1
  3
ACAD_XREC_ROUNDTRIP
360
2E1
  0
DICTIONARY
  5
2D6
330
33
100
AcDbDictionary
280
     1
281
     1
  3
ACAD_XREC_ROUNDTRIP
360
2D7
  0
DICTIONARY
  5
2DE
330
37
100
AcDbDictionary
280
     1
281
     1
  3
ACAD_XREC_ROUNDTRIP
360
2DF
  0
XRECORD
  5
2E9
102
{ACAD_REACTORS
330
2E8
102
}
330
2E8
100
AcDbXrecord
280
     1
102
MATERIAL
148
0.0
149
0.0
149
0.0
 93
        0
 94
      127
282
     0
 72
     1
 77
     1
171
     1
175
     1
179
     1
273
     0
  0
XRECORD
  5
2E7
102
{ACAD_REACTORS
330
2E6
102
}
330
2E6
100
AcDbXrecord
280
     1
102
MATERIAL
148
0.0
149
0.0
149
0.0
 93
        0
 94
      127
282
     0
 72
     1
 77
     1
171
     1
175
     1
179
     1
273
     0
  0
XRECORD
  5
2EB
102
{ACAD_REACTORS
330
2EA
102
}
330
2EA
100
AcDbXrecord
280
     1
102
MATERIAL
148
0.0
149
0.0
149
0.0
 93
        0
 94
      127
282
     0
 72
     1
 77
     1
171
     1
175
     1
179
     1
273
     0
  0
XRECORD
  5
2CF
102
{ACAD_REACTORS
330
2CE
102
}
330
2CE
100
AcDbXrecord
280
     1
102
RTVSPropertyOp0
 70
     1
102
RTVSPropertyOp1
 70
     1
102
RTVSPropertyOp2
 70
     1
102
RTVSPropertyOp3
 70
     1
102
RTVSPropertyOp4
 70
     1
102
RTVSPropertyOp5
 70
     1
102
RTVSPropertyOp6
 70
     1
102
RTVSPropertyOp7
 70
     1
102
RTVSPropertyOp8
 70
     1
102
RTVSPropertyOp9
 70
     1
102
RTVSPropertyOp10
 70
     1
102
RTVSPropertyOp11
 70
     1
102
RTVSPropertyOp12
 70
     1
102
RTVSPropertyOp13
 70
     1
102
RTVSPropertyOp14
 70
     1
102
RTVSPropertyOp15
 70
     1
102
RTVSPropertyOp16
 70
     1
102
RTVSPropertyOp17
 70
     1
102
RTVSPropertyOp18
 70
     1
102
RTVSPropertyOp19
 70
     1
102
RTVSPropertyOp20
 70
     1
102
RTVSPropertyOp21
 70
     1
102
RTVSPropertyOp22
 70
     1
102
RTVSPropertyOp23
 70
     1
102
RTVSPropertyOp24
 70
     1
102
RTVSPropertyOp25
 70
     1
102
RTVSPropertyOp26
 70
     1
102
RTVSPropertyOp27
 70
     1
102
RTVSPropertyOp28
 70
     1
102
RTVSPropertyOp29
 70
     1
102
RTVSPropertyOp30
 70
     1
102
RTVSPropertyOp31
 70
     1
102
RTVSPropertyOp32
 70
     1
  0
XRECORD
  5
2D3
102
{ACAD_REACTORS
330
2D2
102
}
330
2D2
100
AcDbXrecord
280
     1
102
RTVSPropertyOp0
 70
     1
102
RTVSPropertyOp1
 70
     1
102
RTVSPropertyOp2
 70
     1
102
RTVSPropertyOp3
 70
     1
102
RTVSPropertyOp4
 70
     1
102
RTVSPropertyOp5
 70
     1
102
RTVSPropertyOp6
 70
     1
102
RTVSPropertyOp7
 70
     1
102
RTVSPropertyOp8
 70
     1
102
RTVSPropertyOp9
 70
     1
102
RTVSPropertyOp10
 70
     1
102
RTVSPropertyOp11
 70
     1
102
RTVSPropertyOp12
 70
     1
102
RTVSPropertyOp13
 70
     1
102
RTVSPropertyOp14
 70
     1
102
RTVSPropertyOp15
 70
     1
102
RTVSPropertyOp16
 70
     1
102
RTVSPropertyOp17
 70
     1
102
RTVSPropertyOp18
 70
     1
102
RTVSPropertyOp19
 70
     1
102
RTVSPropertyOp20
 70
     1
102
RTVSPropertyOp21
 70
     1
102
RTVSPropertyOp22
 70
     1
102
RTVSPropertyOp23
 70
     1
102
RTVSPropertyOp24
 70
     1
102
RTVSPropertyOp25
 70
     1
102
RTVSPropertyOp26
 70
     1
102
RTVSPropertyOp27
 70
     1
102
RTVSPropertyOp28
 70
     1
102
RTVSPropertyOp29
 70
     1
102
RTVSPropertyOp30
 70
     1
102
RTVSPropertyOp31
 70
     1
102
RTVSPropertyOp32
 70
     1
  0
XRECORD
  5
2D1
102
{ACAD_REACTORS
330
2D0
102
}
330
2D0
100
AcDbXrecord
280
     1
102
RTVSPropertyOp0
 70
     1
102
RTVSPropertyOp1
 70
     1
102
RTVSPropertyOp2
 70
     1
102
RTVSPropertyOp3
 70
     1
102
RTVSPropertyOp4
 70
     1
102
RTVSPropertyOp5
 70
     1
102
RTVSPropertyOp6
 70
     1
102
RTVSPropertyOp7
 70
     1
102
RTVSPropertyOp8
 70
     1
102
RTVSPropertyOp9
 70
     1
102
RTVSPropertyOp10
 70
     1
102
RTVSPropertyOp11
 70
     1
102
RTVSPropertyOp12
 70
     1
102
RTVSPropertyOp13
 70
     1
102
RTVSPropertyOp14
 70
     1
102
RTVSPropertyOp15
 70
     1
102
RTVSPropertyOp16
 70
     1
102
RTVSPropertyOp17
 70
     1
102
RTVSPropertyOp18
 70
     1
102
RTVSPropertyOp19
 70
     1
102
RTVSPropertyOp20
 70
     1
102
RTVSPropertyOp21
 70
     1
102
RTVSPropertyOp22
 70
     1
102
RTVSPropertyOp23
 70
     1
102
RTVSPropertyOp24
 70
     1
102
RTVSPropertyOp25
 70
     1
102
RTVSPropertyOp26
 70
     1
102
RTVSPropertyOp27
 70
     1
102
RTVSPropertyOp28
 70
     1
102
RTVSPropertyOp29
 70
     1
102
RTVSPropertyOp30
 70
     1
102
RTVSPropertyOp31
 70
     1
102
RTVSPropertyOp32
 70
     1
  0
XRECORD
  5
2D5
102
{ACAD_REACTORS
330
2D4
102
}
330
2D4
100
AcDbXrecord
280
     1
102
RTVSPropertyOp0
 70
     1
102
RTVSPropertyOp1
 70
     1
102
RTVSPropertyOp2
 70
     1
102
RTVSPropertyOp3
 70
     1
102
RTVSPropertyOp4
 70
     1
102
RTVSPropertyOp5
 70
     1
102
RTVSPropertyOp6
 70
     1
102
RTVSPropertyOp7
 70
     1
102
RTVSPropertyOp8
 70
     1
102
RTVSPropertyOp9
 70
     1
102
RTVSPropertyOp10
 70
     1
102
RTVSPropertyOp11
 70
     1
102
RTVSPropertyOp12
 70
     1
102
RTVSPropertyOp13
 70
     1
102
RTVSPropertyOp14
 70
     1
102
RTVSPropertyOp15
 70
     1
102
RTVSPropertyOp16
 70
     1
102
RTVSPropertyOp17
 70
     1
102
RTVSPropertyOp18
 70
     1
102
RTVSPropertyOp19
 70
     1
102
RTVSPropertyOp20
 70
     1
102
RTVSPropertyOp21
 70
     1
102
RTVSPropertyOp22
 70
     1
102
RTVSPropertyOp23
 70
     1
102
RTVSPropertyOp24
 70
     1
102
RTVSPropertyOp25
 70
     1
102
RTVSPropertyOp26
 70
     1
102
RTVSPropertyOp27
 70
     1
102
RTVSPropertyOp28
 70
     1
102
RTVSPropertyOp29
 70
     1
102
RTVSPropertyOp30
 70
     1
102
RTVSPropertyOp31
 70
     1
102
RTVSPropertyOp32
 70
     1
  0
XRECORD
  5
2DD
102
{ACAD_REACTORS
330
2DC
102
}
330
2DC
100
AcDbXrecord
280
     1
102
RTVSPropertyOp0
 70
     1
102
RTVSPropertyOp1
 70
     1
102
RTVSPropertyOp2
 70
     1
102
RTVSPropertyOp3
 70
     1
102
RTVSPropertyOp4
 70
     1
102
RTVSPropertyOp5
 70
     1
102
RTVSPropertyOp6
 70
     1
102
RTVSPropertyOp7
 70
     1
102
RTVSPropertyOp8
 70
     1
102
RTVSPropertyOp9
 70
     1
102
RTVSPropertyOp10
 70
     1
102
RTVSPropertyOp11
 70
     1
102
RTVSPropertyOp12
 70
     1
102
RTVSPropertyOp13
 70
     1
102
RTVSPropertyOp14
 70
     1
102
RTVSPropertyOp15
 70
     1
102
RTVSPropertyOp16
 70
     1
102
RTVSPropertyOp17
 70
     1
102
RTVSPropertyOp18
 70
     1
102
RTVSPropertyOp19
 70
     1
102
RTVSPropertyOp20
 70
     1
102
RTVSPropertyOp21
 70
     1
102
RTVSPropertyOp22
 70
     1
102
RTVSPropertyOp23
 70
     1
102
RTVSPropertyOp24
 70
     1
102
RTVSPropertyOp25
 70
     1
102
RTVSPropertyOp26
 70
     1
102
RTVSPropertyOp27
 70
     1
102
RTVSPropertyOp28
 70
     1
102
RTVSPropertyOp29
 70
     1
102
RTVSPropertyOp30
 70
     1
102
RTVSPropertyOp31
 70
     1
102
RTVSPropertyOp32
 70
     1
  0
XRECORD
  5
2E5
102
{ACAD_REACTORS
330
2E4
102
}
330
2E4
100
AcDbXrecord
280
     1
102
RTVSPropertyOp0
 70
     1
102
RTVSPropertyOp1
 70
     1
102
RTVSPropertyOp2
 70
     1
102
RTVSPropertyOp3
 70
     1
102
RTVSPropertyOp4
 70
     1
102
RTVSPropertyOp5
 70
     1
102
RTVSPropertyOp6
 70
     1
102
RTVSPropertyOp7
 70
     1
102
RTVSPropertyOp8
 70
     1
102
RTVSPropertyOp9
 70
     1
102
RTVSPropertyOp10
 70
     1
102
RTVSPropertyOp11
 70
     1
102
RTVSPropertyOp12
 70
     1
102
RTVSPropertyOp13
 70
     1
102
RTVSPropertyOp14
 70
     1
102
RTVSPropertyOp15
 70
     1
102
RTVSPropertyOp16
 70
     1
102
RTVSPropertyOp17
 70
     1
102
RTVSPropertyOp18
 70
     1
102
RTVSPropertyOp19
 70
     1
102
RTVSPropertyOp20
 70
     1
102
RTVSPropertyOp21
 70
     1
102
RTVSPropertyOp22
 70
     1
102
RTVSPropertyOp23
 70
     1
102
RTVSPropertyOp24
 70
     1
102
RTVSPropertyOp25
 70
     1
102
RTVSPropertyOp26
 70
     1
102
RTVSPropertyOp27
 70
     1
102
RTVSPropertyOp28
 70
     1
102
RTVSPropertyOp29
 70
     1
102
RTVSPropertyOp30
 70
     1
102
RTVSPropertyOp31
 70
     1
102
RTVSPropertyOp32
 70
     1
  0
XRECORD
  5
2D9
102
{ACAD_REACTORS
330
2D8
102
}
330
2D8
100
AcDbXrecord
280
     1
102
RTVSPropertyOp0
 70
     1
102
RTVSPropertyOp1
 70
     1
102
RTVSPropertyOp2
 70
     1
102
RTVSPropertyOp3
 70
     1
102
RTVSPropertyOp4
 70
     1
102
RTVSPropertyOp5
 70
     1
102
RTVSPropertyOp6
 70
     1
102
RTVSPropertyOp7
 70
     1
102
RTVSPropertyOp8
 70
     1
102
RTVSPropertyOp9
 70
     1
102
RTVSPropertyOp10
 70
     1
102
RTVSPropertyOp11
 70
     1
102
RTVSPropertyOp12
 70
     1
102
RTVSPropertyOp13
 70
     1
102
RTVSPropertyOp14
 70
     1
102
RTVSPropertyOp15
 70
     1
102
RTVSPropertyOp16
 70
     1
102
RTVSPropertyOp17
 70
     1
102
RTVSPropertyOp18
 70
     1
102
RTVSPropertyOp19
 70
     1
102
RTVSPropertyOp20
 70
     1
102
RTVSPropertyOp21
 70
     1
102
RTVSPropertyOp22
 70
     1
102
RTVSPropertyOp23
 70
     1
102
RTVSPropertyOp24
 70
     1
102
RTVSPropertyOp25
 70
     1
102
RTVSPropertyOp26
 70
     1
102
RTVSPropertyOp27
 70
     1
102
RTVSPropertyOp28
 70
     1
102
RTVSPropertyOp29
 70
     1
102
RTVSPropertyOp30
 70
     1
102
RTVSPropertyOp31
 70
     1
102
RTVSPropertyOp32
 70
     1
  0
XRECORD
  5
2DB
102
{ACAD_REACTORS
330
2DA
102
}
330
2DA
100
AcDbXrecord
280
     1
102
RTVSPropertyOp0
 70
     1
102
RTVSPropertyOp1
 70
     1
102
RTVSPropertyOp2
 70
     1
102
RTVSPropertyOp3
 70
     1
102
RTVSPropertyOp4
 70
     1
102
RTVSPropertyOp5
 70
     1
102
RTVSPropertyOp6
 70
     1
102
RTVSPropertyOp7
 70
     1
102
RTVSPropertyOp8
 70
     1
102
RTVSPropertyOp9
 70
     1
102
RTVSPropertyOp10
 70
     1
102
RTVSPropertyOp11
 70
     1
102
RTVSPropertyOp12
 70
     1
102
RTVSPropertyOp13
 70
     1
102
RTVSPropertyOp14
 70
     1
102
RTVSPropertyOp15
 70
     1
102
RTVSPropertyOp16
 70
     1
102
RTVSPropertyOp17
 70
     1
102
RTVSPropertyOp18
 70
     1
102
RTVSPropertyOp19
 70
     1
102
RTVSPropertyOp20
 70
     1
102
RTVSPropertyOp21
 70
     1
102
RTVSPropertyOp22
 70
     1
102
RTVSPropertyOp23
 70
     1
102
RTVSPropertyOp24
 70
     1
102
RTVSPropertyOp25
 70
     1
102
RTVSPropertyOp26
 70
     1
102
RTVSPropertyOp27
 70
     1
102
RTVSPropertyOp28
 70
     1
102
RTVSPropertyOp29
 70
     1
102
RTVSPropertyOp30
 70
     1
102
RTVSPropertyOp31
 70
     1
102
RTVSPropertyOp32
 70
     1
  0
XRECORD
  5
2E3
102
{ACAD_REACTORS
330
2E2
102
}
330
2E2
100
AcDbXrecord
280
     1
102
RTVSPropertyOp0
 70
     1
102
RTVSPropertyOp1
 70
     1
102
RTVSPropertyOp2
 70
     1
102
RTVSPropertyOp3
 70
     1
102
RTVSPropertyOp4
 70
     1
102
RTVSPropertyOp5
 70
     1
102
RTVSPropertyOp6
 70
     1
102
RTVSPropertyOp7
 70
     1
102
RTVSPropertyOp8
 70
     1
102
RTVSPropertyOp9
 70
     1
102
RTVSPropertyOp10
 70
     1
102
RTVSPropertyOp11
 70
     1
102
RTVSPropertyOp12
 70
     1
102
RTVSPropertyOp13
 70
     1
102
RTVSPropertyOp14
 70
     1
102
RTVSPropertyOp15
 70
     1
102
RTVSPropertyOp16
 70
     1
102
RTVSPropertyOp17
 70
     1
102
RTVSPropertyOp18
 70
     1
102
RTVSPropertyOp19
 70
     1
102
RTVSPropertyOp20
 70
     1
102
RTVSPropertyOp21
 70
     1
102
RTVSPropertyOp22
 70
     1
102
RTVSPropertyOp23
 70
     1
102
RTVSPropertyOp24
 70
     1
102
RTVSPropertyOp25
 70
     1
102
RTVSPropertyOp26
 70
     1
102
RTVSPropertyOp27
 70
     1
102
RTVSPropertyOp28
 70
     1
102
RTVSPropertyOp29
 70
     1
102
RTVSPropertyOp30
 70
     1
102
RTVSPropertyOp31
 70
     1
102
RTVSPropertyOp32
 70
     1
  0
XRECORD
  5
2C7
102
{ACAD_REACTORS
330
2C6
102
}
330
2C6
100
AcDbXrecord
280
     1
102
RTVSPropertyOp0
 70
     1
102
RTVSPropertyOp1
 70
     1
102
RTVSPropertyOp2
 70
     1
102
RTVSPropertyOp3
 70
     1
102
RTVSPropertyOp4
 70
     1
102
RTVSPropertyOp5
 70
     1
102
RTVSPropertyOp6
 70
     1
102
RTVSPropertyOp7
 70
     1
102
RTVSPropertyOp8
 70
     1
102
RTVSPropertyOp9
 70
     1
102
RTVSPropertyOp10
 70
     1
102
RTVSPropertyOp11
 70
     1
102
RTVSPropertyOp12
 70
     1
102
RTVSPropertyOp13
 70
     1
102
RTVSPropertyOp14
 70
     1
102
RTVSPropertyOp15
 70
     1
102
RTVSPropertyOp16
 70
     1
102
RTVSPropertyOp17
 70
     1
102
RTVSPropertyOp18
 70
     1
102
RTVSPropertyOp19
 70
     1
102
RTVSPropertyOp20
 70
     1
102
RTVSPropertyOp21
 70
     1
102
RTVSPropertyOp22
 70
     1
102
RTVSPropertyOp23
 70
     1
102
RTVSPropertyOp24
 70
     1
102
RTVSPropertyOp25
 70
     1
102
RTVSPropertyOp26
 70
     1
102
RTVSPropertyOp27
 70
     1
102
RTVSPropertyOp28
 70
     1
102
RTVSPropertyOp29
 70
     1
102
RTVSPropertyOp30
 70
     1
102
RTVSPropertyOp31
 70
     1
102
RTVSPropertyOp32
 70
     1
  0
XRECORD
  5
2C9
102
{ACAD_REACTORS
330
2C8
102
}
330
2C8
100
AcDbXrecord
280
     1
102
RTVSPropertyOp0
 70
     1
102
RTVSPropertyOp1
 70
     1
102
RTVSPropertyOp2
 70
     1
102
RTVSPropertyOp3
 70
     1
102
RTVSPropertyOp4
 70
     1
102
RTVSPropertyOp5
 70
     1
102
RTVSPropertyOp6
 70
     1
102
RTVSPropertyOp7
 70
     1
102
RTVSPropertyOp8
 70
     1
102
RTVSPropertyOp9
 70
     1
102
RTVSPropertyOp10
 70
     1
102
RTVSPropertyOp11
 70
     1
102
RTVSPropertyOp12
 70
     1
102
RTVSPropertyOp13
 70
     1
102
RTVSPropertyOp14
 70
     1
102
RTVSPropertyOp15
 70
     1
102
RTVSPropertyOp16
 70
     1
102
RTVSPropertyOp17
 70
     1
102
RTVSPropertyOp18
 70
     1
102
RTVSPropertyOp19
 70
     1
102
RTVSPropertyOp20
 70
     1
102
RTVSPropertyOp21
 70
     1
102
RTVSPropertyOp22
 70
     1
102
RTVSPropertyOp23
 70
     1
102
RTVSPropertyOp24
 70
     1
102
RTVSPropertyOp25
 70
     1
102
RTVSPropertyOp26
 70
     1
102
RTVSPropertyOp27
 70
     1
102
RTVSPropertyOp28
 70
     1
102
RTVSPropertyOp29
 70
     1
102
RTVSPropertyOp30
 70
     1
102
RTVSPropertyOp31
 70
     1
102
RTVSPropertyOp32
 70
     1
  0
XRECORD
  5
2CB
102
{ACAD_REACTORS
330
2CA
102
}
330
2CA
100
AcDbXrecord
280
     1
102
RTVSPropertyOp0
 70
     1
102
RTVSPropertyOp1
 70
     1
102
RTVSPropertyOp2
 70
     1
102
RTVSPropertyOp3
 70
     1
102
RTVSPropertyOp4
 70
     1
102
RTVSPropertyOp5
 70
     1
102
RTVSPropertyOp6
 70
     1
102
RTVSPropertyOp7
 70
     1
102
RTVSPropertyOp8
 70
     1
102
RTVSPropertyOp9
 70
     1
102
RTVSPropertyOp10
 70
     1
102
RTVSPropertyOp11
 70
     1
102
RTVSPropertyOp12
 70
     1
102
RTVSPropertyOp13
 70
     1
102
RTVSPropertyOp14
 70
     1
102
RTVSPropertyOp15
 70
     1
102
RTVSPropertyOp16
 70
     1
102
RTVSPropertyOp17
 70
     1
102
RTVSPropertyOp18
 70
     1
102
RTVSPropertyOp19
 70
     1
102
RTVSPropertyOp20
 70
     1
102
RTVSPropertyOp21
 70
     1
102
RTVSPropertyOp22
 70
     1
102
RTVSPropertyOp23
 70
     1
102
RTVSPropertyOp24
 70
     1
102
RTVSPropertyOp25
 70
     1
102
RTVSPropertyOp26
 70
     1
102
RTVSPropertyOp27
 70
     1
102
RTVSPropertyOp28
 70
     1
102
RTVSPropertyOp29
 70
     1
102
RTVSPropertyOp30
 70
     1
102
RTVSPropertyOp31
 70
     1
102
RTVSPropertyOp32
 70
     1
  0
XRECORD
  5
2CD
102
{ACAD_REACTORS
330
2CC
102
}
330
2CC
100
AcDbXrecord
280
     1
102
RTVSPropertyOp0
 70
     1
102
RTVSPropertyOp1
 70
     1
102
RTVSPropertyOp2
 70
     1
102
RTVSPropertyOp3
 70
     1
102
RTVSPropertyOp4
 70
     1
102
RTVSPropertyOp5
 70
     1
102
RTVSPropertyOp6
 70
     1
102
RTVSPropertyOp7
 70
     1
102
RTVSPropertyOp8
 70
     1
102
RTVSPropertyOp9
 70
     1
102
RTVSPropertyOp10
 70
     1
102
RTVSPropertyOp11
 70
     1
102
RTVSPropertyOp12
 70
     1
102
RTVSPropertyOp13
 70
     1
102
RTVSPropertyOp14
 70
     1
102
RTVSPropertyOp15
 70
     1
102
RTVSPropertyOp16
 70
     1
102
RTVSPropertyOp17
 70
     1
102
RTVSPropertyOp18
 70
     1
102
RTVSPropertyOp19
 70
     1
102
RTVSPropertyOp20
 70
     1
102
RTVSPropertyOp21
 70
     1
102
RTVSPropertyOp22
 70
     1
102
RTVSPropertyOp23
 70
     1
102
RTVSPropertyOp24
 70
     1
102
RTVSPropertyOp25
 70
     1
102
RTVSPropertyOp26
 70
     1
102
RTVSPropertyOp27
 70
     1
102
RTVSPropertyOp28
 70
     1
102
RTVSPropertyOp29
 70
     1
102
RTVSPropertyOp30
 70
     1
102
RTVSPropertyOp31
 70
     1
102
RTVSPropertyOp32
 70
     1
  0
XRECORD
  5
2E1
102
{ACAD_REACTORS
330
2E0
102
}
330
2E0
100
AcDbXrecord
280
     1
102
RTVSPropertyOp0
 70
     1
102
RTVSPropertyOp1
 70
     1
102
RTVSPropertyOp2
 70
     1
102
RTVSPropertyOp3
 70
     1
102
RTVSPropertyOp4
 70
     1
102
RTVSPropertyOp5
 70
     1
102
RTVSPropertyOp6
 70
     1
102
RTVSPropertyOp7
 70
     1
102
RTVSPropertyOp8
 70
     1
102
RTVSPropertyOp9
 70
     1
102
RTVSPropertyOp10
 70
     1
102
RTVSPropertyOp11
 70
     1
102
RTVSPropertyOp12
 70
     1
102
RTVSPropertyOp13
 70
     1
102
RTVSPropertyOp14
 70
     1
102
RTVSPropertyOp15
 70
     1
102
RTVSPropertyOp16
 70
     1
102
RTVSPropertyOp17
 70
     1
102
RTVSPropertyOp18
 70
     1
102
RTVSPropertyOp19
 70
     1
102
RTVSPropertyOp20
 70
     1
102
RTVSPropertyOp21
 70
     1
102
RTVSPropertyOp22
 70
     1
102
RTVSPropertyOp23
 70
     1
102
RTVSPropertyOp24
 70
     1
102
RTVSPropertyOp25
 70
     1
102
RTVSPropertyOp26
 70
     1
102
RTVSPropertyOp27
 70
     1
102
RTVSPropertyOp28
 70
     1
102
RTVSPropertyOp29
 70
     1
102
RTVSPropertyOp30
 70
     1
102
RTVSPropertyOp31
 70
     1
102
RTVSPropertyOp32
 70
     1
  0
XRECORD
  5
2D7
102
{ACAD_REACTORS
330
2D6
102
}
330
2D6
100
AcDbXrecord
280
     1
102
RTVSPropertyOp0
 70
     1
102
RTVSPropertyOp1
 70
     1
102
RTVSPropertyOp2
 70
     1
102
RTVSPropertyOp3
 70
     1
102
RTVSPropertyOp4
 70
     1
102
RTVSPropertyOp5
 70
     1
102
RTVSPropertyOp6
 70
     1
102
RTVSPropertyOp7
 70
     1
102
RTVSPropertyOp8
 70
     1
102
RTVSPropertyOp9
 70
     1
102
RTVSPropertyOp10
 70
     1
102
RTVSPropertyOp11
 70
     1
102
RTVSPropertyOp12
 70
     1
102
RTVSPropertyOp13
 70
     1
102
RTVSPropertyOp14
 70
     1
102
RTVSPropertyOp15
 70
     1
102
RTVSPropertyOp16
 70
     1
102
RTVSPropertyOp17
 70
     1
102
RTVSPropertyOp18
 70
     1
102
RTVSPropertyOp19
 70
     1
102
RTVSPropertyOp20
 70
     1
102
RTVSPropertyOp21
 70
     1
102
RTVSPropertyOp22
 70
     1
102
RTVSPropertyOp23
 70
     1
102
RTVSPropertyOp24
 70
     1
102
RTVSPropertyOp25
 70
     1
102
RTVSPropertyOp26
 70
     1
102
RTVSPropertyOp27
 70
     1
102
RTVSPropertyOp28
 70
     1
102
RTVSPropertyOp29
 70
     1
102
RTVSPropertyOp30
 70
     1
102
RTVSPropertyOp31
 70
     1
102
RTVSPropertyOp32
 70
     1
  0
XRECORD
  5
2DF
102
{ACAD_REACTORS
330
2DE
102
}
330
2DE
100
AcDbXrecord
280
     1
102
RTVSPropertyOp0
 70
     1
102
RTVSPropertyOp1
 70
     1
102
RTVSPropertyOp2
 70
     1
102
RTVSPropertyOp3
 70
     1
102
RTVSPropertyOp4
 70
     1
102
RTVSPropertyOp5
 70
     1
102
RTVSPropertyOp6
 70
     1
102
RTVSPropertyOp7
 70
     1
102
RTVSPropertyOp8
 70
     1
102
RTVSPropertyOp9
 70
     1
102
RTVSPropertyOp10
 70
     1
102
RTVSPropertyOp11
 70
     1
102
RTVSPropertyOp12
 70
     1
102
RTVSPropertyOp13
 70
     1
102
RTVSPropertyOp14
 70
     1
102
RTVSPropertyOp15
 70
     1
102
RTVSPropertyOp16
 70
     1
102
RTVSPropertyOp17
 70
     1
102
RTVSPropertyOp18
 70
     1
102
RTVSPropertyOp19
 70
     1
102
RTVSPropertyOp20
 70
     1
102
RTVSPropertyOp21
 70
     1
102
RTVSPropertyOp22
 70
     1
102
RTVSPropertyOp23
 70
     1
102
RTVSPropertyOp24
 70
     1
102
RTVSPropertyOp25
 70
     1
102
RTVSPropertyOp26
 70
     1
102
RTVSPropertyOp27
 70
     1
102
RTVSPropertyOp28
 70
     1
102
RTVSPropertyOp29
 70
     1
102
RTVSPropertyOp30
 70
     1
102
RTVSPropertyOp31
 70
     1
102
RTVSPropertyOp32
 70
     1
  0
ENDSEC
  0
EOF
